<?xml version="1.0" standalone="no"?>
<!DOCTYPE svg PUBLIC "-//W3C//DTD SVG 1.1//EN" "http://www.w3.org/Graphics/SVG/1.1/DTD/svg11.dtd" >
<svg xmlns="http://www.w3.org/2000/svg" xmlns:xlink="http://www.w3.org/1999/xlink" version="1.1">
<metadata>
Created by FontForge 20191125 at Thu Apr 11 13:38:16 2013
 By convertio
Generated in 2013 by FontLab Studio. Copyright info pending.
</metadata>
<defs>
<font id="CircularStd-Medium" horiz-adv-x="570" >
  <font-face 
    font-family="Circular Std Medium"
    font-weight="500"
    font-stretch="normal"
    units-per-em="1000"
    panose-1="2 11 6 4 2 1 1 1 1 2"
    ascent="809"
    descent="-191"
    x-height="487"
    cap-height="709"
    bbox="-51 -238 1520 979"
    underline-thickness="80"
    underline-position="-195"
    stemh="104"
    stemv="116"
    unicode-range="U+000D-FEFF"
  />
<missing-glyph horiz-adv-x="574" 
d="M75 0v709h424v-709h-424zM171 96h232v517h-232v-517z" />
    <glyph glyph-name="f_f" unicode="ff" horiz-adv-x="670" 
d="M611 625c-30 0 -72 -14 -72 -74v-64h113v-101h-113v-386h-117v386h-203v-386h-117v386h-85v101h85v67c0 109 70 175 170 175c29 0 53 -6 61 -10v-99c-7 2 -20 5 -42 5c-30 0 -72 -14 -72 -74v-64h203v67c0 109 70 175 170 175c29 0 53 -6 61 -10v-99c-7 2 -20 5 -42 5z
" />
    <glyph glyph-name="f_f_i" unicode="ffi" horiz-adv-x="940" 
d="M732 659c0 42 34 76 75 76c42 0 76 -34 76 -76c0 -41 -34 -75 -76 -75c-41 0 -75 34 -75 75zM611 625c-30 0 -72 -14 -72 -74v-64h326v-487h-115v386h-211v-386h-117v386h-203v-386h-117v386h-85v101h85v67c0 109 70 175 170 175c29 0 53 -6 61 -10v-99c-7 2 -20 5 -42 5
c-31 0 -72 -14 -72 -74v-64h203v67c0 109 70 175 170 175c29 0 53 -6 61 -10v-99c-7 2 -20 5 -42 5z" />
    <glyph glyph-name="f_f_l" unicode="ffl" horiz-adv-x="940" 
d="M611 625c-30 0 -72 -14 -72 -74v-64h211v237h115v-724h-115v386h-211v-386h-117v386h-203v-386h-117v386h-85v101h85v67c0 109 70 175 170 175c29 0 53 -6 61 -10v-99c-7 2 -20 5 -42 5c-30 0 -72 -14 -72 -74v-64h203v67c0 109 70 175 170 175c29 0 53 -6 61 -10v-99
c-7 2 -20 5 -42 5z" />
    <glyph glyph-name="f_i" unicode="fi" horiz-adv-x="619" 
d="M272 729c29 0 53 -6 61 -10v-99c-7 2 -20 5 -42 5c-30 0 -72 -14 -72 -74v-64h324v-487h-114v386h-210v-386h-117v386h-85v101h85v67c0 109 70 175 170 175zM411 659c0 42 33 76 75 76s76 -34 76 -76c0 -41 -34 -75 -76 -75s-75 34 -75 75z" />
    <glyph glyph-name="f_l" unicode="fl" horiz-adv-x="617" 
d="M291 625c-30 0 -72 -14 -72 -74v-64h208v237h115v-724h-115v386h-208v-386h-117v386h-85v101h85v67c0 109 70 175 170 175c29 0 53 -6 61 -10v-99c-7 2 -20 5 -42 5z" />
    <glyph glyph-name=".notdef" horiz-adv-x="574" 
d="M75 0v709h424v-709h-424zM171 96h232v517h-232v-517z" />
    <glyph glyph-name=".null" horiz-adv-x="0" 
 />
    <glyph glyph-name=".null" horiz-adv-x="0" 
 />
    <glyph glyph-name="uni000D" unicode="&#xd;" horiz-adv-x="248" 
 />
    <glyph glyph-name="space" unicode=" " horiz-adv-x="248" 
 />
    <glyph glyph-name="exclam" unicode="!" horiz-adv-x="324" 
d="M232 709l-28 -499h-84l-29 499h141zM89 66c0 40 32 74 72 74c41 0 74 -34 74 -74s-33 -73 -74 -73c-40 0 -72 33 -72 73z" />
    <glyph glyph-name="quotedbl" unicode="&#x22;" horiz-adv-x="390" 
d="M37 591c0 40 28 69 68 69s68 -29 68 -69c0 -7 -1 -17 -3 -23l-45 -185h-41l-44 185c-1 5 -3 16 -3 23zM217 591c0 40 28 69 68 69s68 -29 68 -69c0 -7 -1 -17 -3 -23l-45 -185h-41l-44 185c-1 5 -3 16 -3 23z" />
    <glyph glyph-name="numbersign" unicode="#" horiz-adv-x="740" 
d="M94 400v87h144l35 161h95l-35 -161h136l35 161h96l-35 -161h130v-87h-149l-32 -149h132v-87h-150l-35 -164h-96l35 164h-136l-35 -164h-95l35 164h-124v87h142l32 149h-125zM314 400l-32 -149h136l32 149h-136z" />
    <glyph glyph-name="dollar" unicode="$" horiz-adv-x="595" 
d="M354 -117h-92v105c-139 17 -206 116 -215 202l112 31c5 -57 36 -113 103 -129v184l-18 4c-106 24 -172 86 -172 184c0 99 80 181 190 196v106h92v-107c118 -19 168 -101 182 -167l-108 -34c-5 30 -24 76 -74 95v-179l9 -2c119 -26 180 -101 180 -190
c0 -90 -66 -176 -189 -193v-106zM189 471c0 -36 23 -68 73 -78v164c-48 -12 -73 -48 -73 -86zM427 176c0 36 -23 66 -73 80v-164c50 10 73 46 73 84z" />
    <glyph glyph-name="percent" unicode="%" horiz-adv-x="837" 
d="M142 496c0 -43 31 -74 71 -74s70 31 70 74s-30 73 -70 73s-71 -30 -71 -73zM49 496c0 90 75 161 164 161c88 0 164 -71 164 -161c0 -91 -76 -160 -165 -160c-88 0 -163 70 -163 160zM560 151c0 -43 31 -74 71 -74s70 31 70 74s-30 73 -70 73s-71 -30 -71 -73zM467 151
c0 90 75 161 164 161c88 0 164 -71 164 -161c0 -91 -76 -160 -165 -160c-88 0 -163 70 -163 160zM244 0h-105l462 648h104z" />
    <glyph glyph-name="ampersand" unicode="&#x26;" horiz-adv-x="708" 
d="M553 0l-80 84c-55 -59 -117 -97 -194 -97c-137 0 -211 93 -211 186c0 91 49 141 123 196l7 5l-12 13c-34 35 -81 90 -81 156c0 117 98 181 190 181c111 0 194 -70 194 -176c0 -70 -50 -122 -100 -160l-31 -23l118 -123l169 182v-150l-97 -107l160 -167h-155zM281 92
c47 0 82 28 118 67l1 1l-131 139l-24 -18c-34 -25 -58 -54 -58 -100c0 -44 36 -89 94 -89zM219 550c0 -34 22 -62 47 -89l20 -22l41 30c37 28 48 54 48 81c0 42 -33 76 -79 76c-37 0 -77 -25 -77 -76z" />
    <glyph glyph-name="quotesingle" unicode="'" horiz-adv-x="210" 
d="M37 591c0 40 28 69 68 69s68 -29 68 -69c0 -7 -1 -17 -3 -23l-45 -185h-41l-44 185c-1 5 -3 16 -3 23z" />
    <glyph glyph-name="parenleft" unicode="(" horiz-adv-x="317" 
d="M48 320c0 224 89 376 201 488l68 -62c-104 -114 -171 -248 -171 -426c0 -179 67 -313 171 -427l-68 -61c-112 112 -201 264 -201 488z" />
    <glyph glyph-name="parenright" unicode=")" horiz-adv-x="317" 
d="M269 320c0 -224 -88 -376 -201 -488l-68 61c105 114 171 248 171 427c0 178 -66 312 -171 426l68 62c113 -112 201 -264 201 -488z" />
    <glyph glyph-name="asterisk" unicode="*" horiz-adv-x="448" 
d="M271 709v-130l119 40l29 -86l-121 -40l78 -102l-73 -54l-80 105l-75 -104l-74 54l76 101l-121 40l29 86l119 -41v131h94z" />
    <glyph glyph-name="plus" unicode="+" horiz-adv-x="579" 
d="M52 339h188v195h99v-195h188v-95h-188v-197h-99v197h-188v95z" />
    <glyph glyph-name="comma" unicode="," horiz-adv-x="304" 
d="M65 73c0 42 36 76 83 76c53 0 91 -42 91 -106c0 -140 -95 -199 -163 -208v59c46 10 88 56 89 108c-4 -2 -11 -5 -24 -5c-44 0 -76 30 -76 76z" />
    <glyph glyph-name="hyphen" unicode="-" horiz-adv-x="372" 
d="M327 241h-282v103h282v-103z" />
    <glyph glyph-name="period" unicode="." horiz-adv-x="296" 
d="M67 75c0 45 36 82 81 82s82 -37 82 -82s-37 -81 -82 -81s-81 36 -81 81z" />
    <glyph glyph-name="slash" unicode="/" horiz-adv-x="456" 
d="M456 714l-349 -719h-107l349 719h107z" />
    <glyph glyph-name="zero" unicode="0" horiz-adv-x="619" 
d="M164 324c0 -82 15 -145 46 -185c22 -29 53 -48 100 -48s77 19 100 48c31 40 45 103 45 185s-14 145 -45 185c-23 29 -53 48 -100 48s-78 -19 -100 -48c-32 -40 -46 -103 -46 -185zM45 324c0 86 14 167 58 233c42 63 110 106 207 106s164 -43 206 -106
c44 -66 58 -147 58 -233s-14 -167 -58 -233c-42 -63 -109 -106 -206 -106s-165 43 -207 106c-44 66 -58 147 -58 233z" />
    <glyph glyph-name="one" unicode="1" horiz-adv-x="376" 
d="M303 0h-118v444h-157v82c93 2 157 54 171 122h104v-648z" />
    <glyph glyph-name="two" unicode="2" horiz-adv-x="537" 
d="M158 405l-116 8c-1 9 -3 24 -3 37c0 112 84 213 231 213c143 0 228 -93 228 -204c0 -84 -47 -153 -125 -201l-126 -78c-31 -19 -57 -42 -66 -74h321v-106h-469c2 111 41 198 154 268l107 67c58 36 83 75 83 122c0 53 -36 101 -109 101c-76 0 -113 -53 -113 -120
c0 -10 2 -22 3 -33z" />
    <glyph glyph-name="three" unicode="3" horiz-adv-x="551" 
d="M219 294l-55 89l179 160h-295v105h450v-100l-176 -154c97 -2 194 -72 194 -197c0 -111 -89 -212 -243 -212c-150 0 -239 97 -247 205l117 24c3 -75 57 -126 129 -126c79 0 123 51 123 110c0 75 -60 107 -115 107c-31 0 -51 -6 -61 -11z" />
    <glyph glyph-name="four" unicode="4" horiz-adv-x="587" 
d="M33 142v130l276 376h154v-400h109v-106h-109v-142h-118v142h-312zM345 248v279l-204 -279h204z" />
    <glyph glyph-name="five" unicode="5" horiz-adv-x="551" 
d="M32 179l113 29c5 -69 56 -121 131 -121c68 0 123 46 123 118c0 80 -59 120 -125 120c-46 0 -85 -19 -108 -45l-113 41l80 327h355v-105h-274l-40 -164c28 29 78 45 124 45c129 0 222 -80 222 -216c0 -122 -94 -224 -244 -224c-140 0 -236 93 -244 195z" />
    <glyph glyph-name="six" unicode="6" horiz-adv-x="581" 
d="M532 631l-34 -98c-24 13 -58 26 -111 26c-122 0 -210 -81 -221 -207c34 52 96 77 165 77c129 0 220 -86 220 -219c0 -135 -110 -225 -246 -225c-165 0 -259 135 -259 301c0 235 147 377 348 377c60 0 110 -14 138 -32zM179 208c0 -74 60 -121 126 -121
c68 0 126 46 126 121c0 76 -58 121 -126 121s-126 -45 -126 -121z" />
    <glyph glyph-name="seven" unicode="7" horiz-adv-x="494" 
d="M489 648v-105c-54 -45 -237 -209 -266 -543h-124c28 362 254 543 254 543h-348v105h484z" />
    <glyph glyph-name="eight" unicode="8" horiz-adv-x="565" 
d="M282 378c65 1 107 41 107 95c0 49 -41 92 -107 92s-106 -43 -106 -92c0 -54 42 -94 106 -95zM282 86c79 0 122 46 122 99s-43 100 -122 100c-78 0 -121 -47 -121 -100s43 -99 121 -99zM282 -15c-148 0 -240 80 -240 188c0 74 51 135 120 159c-62 23 -105 84 -105 148
c0 108 95 183 225 183s226 -75 226 -183c0 -63 -43 -125 -105 -148c68 -24 120 -85 120 -159c0 -108 -92 -188 -241 -188z" />
    <glyph glyph-name="nine" unicode="9" horiz-adv-x="582" 
d="M55 22l33 98c25 -16 73 -30 116 -30c136 0 209 82 215 204c-24 -42 -81 -75 -158 -75c-117 0 -224 80 -224 218c0 134 108 226 244 226c135 0 256 -96 256 -303c0 -235 -112 -375 -332 -375c-53 0 -117 15 -150 37zM403 441c0 72 -59 120 -124 120
c-66 0 -124 -47 -124 -120c0 -76 57 -121 124 -121c65 0 124 47 124 121z" />
    <glyph glyph-name="colon" unicode=":" horiz-adv-x="302" 
d="M71 74c0 45 36 81 81 81c44 0 81 -36 81 -81c0 -44 -37 -80 -81 -80c-45 0 -81 36 -81 80zM70 412c0 45 36 81 81 81c44 0 81 -36 81 -81c0 -44 -37 -80 -81 -80c-45 0 -81 36 -81 80z" />
    <glyph glyph-name="semicolon" unicode=";" horiz-adv-x="307" 
d="M71 69c0 40 34 73 79 73c50 0 86 -40 86 -101c0 -133 -90 -189 -155 -198v56c44 10 84 54 85 103c-4 -2 -11 -5 -23 -5c-42 0 -72 29 -72 72zM70 412c0 45 36 81 81 81c44 0 81 -36 81 -81c0 -44 -37 -80 -81 -80c-45 0 -81 36 -81 80z" />
    <glyph glyph-name="less" unicode="&#x3c;" horiz-adv-x="490" 
d="M35 244v94l422 212v-111l-302 -147l302 -148v-111z" />
    <glyph glyph-name="equal" unicode="=" horiz-adv-x="598" 
d="M537 343h-475v94h475v-94zM537 146h-475v95h475v-95z" />
    <glyph glyph-name="greater" unicode="&#x3e;" horiz-adv-x="490" 
d="M455 338v-94l-422 -211v110l304 148l-304 147v112z" />
    <glyph glyph-name="question" unicode="?" horiz-adv-x="520" 
d="M295 210h-100c-1 13 -2 24 -2 38c0 60 23 109 81 151l46 33c33 24 47 53 47 87c0 52 -35 101 -108 101c-74 0 -113 -57 -113 -114c0 -15 2 -34 6 -45l-113 8c-4 14 -6 30 -6 46c0 100 75 209 226 209c148 0 228 -98 228 -200c0 -79 -42 -135 -100 -176l-43 -30
c-33 -23 -50 -56 -50 -95c0 -2 0 -7 1 -13zM173 66c0 40 32 74 73 74c40 0 73 -34 73 -74s-33 -73 -73 -73c-41 0 -73 33 -73 73z" />
    <glyph glyph-name="at" unicode="@" horiz-adv-x="826" 
d="M594 138c-51 0 -88 24 -98 62c-27 -42 -73 -64 -117 -64c-88 0 -152 70 -152 172c0 132 91 229 198 229c40 0 86 -19 101 -61l9 48h88l-53 -248c-1 -5 -3 -15 -3 -21c0 -20 9 -38 34 -38c53 0 103 80 103 179c0 143 -109 246 -270 246c-172 0 -300 -124 -300 -310
c0 -170 115 -298 309 -298c67 0 135 20 193 64l45 -61c-56 -52 -156 -84 -238 -84c-234 0 -401 152 -401 379c0 233 177 392 391 392c204 0 358 -140 358 -327c0 -151 -93 -258 -197 -259zM504 368c0 53 -26 85 -75 85c-69 0 -109 -73 -109 -138c0 -54 23 -96 77 -96
c61 0 105 62 107 149z" />
    <glyph glyph-name="A" unicode="A" horiz-adv-x="711" 
d="M570 0l-67 178h-300l-66 -178h-127l276 709h139l276 -709h-131zM353 579l-108 -290h216z" />
    <glyph glyph-name="B" unicode="B" horiz-adv-x="607" 
d="M85 709h244c136 0 216 -80 216 -191c0 -75 -44 -131 -105 -153c75 -20 127 -85 127 -169c0 -114 -88 -196 -220 -196h-262v709zM204 409h109c70 0 112 40 112 99c0 60 -42 99 -115 99h-106v-198zM204 102h122c72 0 119 39 119 102c0 61 -41 104 -115 104h-126v-206z" />
    <glyph glyph-name="C" unicode="C" horiz-adv-x="758" 
d="M400 -15c-191 0 -358 138 -358 369s173 370 357 370c180 0 287 -106 319 -230l-113 -38c-21 86 -87 155 -206 155c-117 0 -234 -85 -234 -257c0 -166 114 -254 235 -254c119 0 187 76 211 156l110 -36c-32 -120 -140 -235 -321 -235z" />
    <glyph glyph-name="D" unicode="D" horiz-adv-x="722" 
d="M205 110h126c123 0 225 79 225 243c0 166 -101 246 -224 246h-127v-489zM335 0h-250v709h251c193 0 345 -128 345 -356c0 -227 -154 -353 -346 -353z" />
    <glyph glyph-name="E" unicode="E" horiz-adv-x="582" 
d="M523 0h-438v709h438v-112h-318v-188h288v-109h-288v-188h318v-112z" />
    <glyph glyph-name="F" unicode="F" horiz-adv-x="557" 
d="M205 0h-120v709h441v-113h-321v-199h288v-111h-288v-286z" />
    <glyph glyph-name="G" unicode="G" horiz-adv-x="774" 
d="M714 0h-97l-9 90c-31 -52 -104 -105 -217 -105c-185 0 -349 136 -349 370c0 233 173 369 357 369c172 0 282 -99 320 -216l-113 -43c-24 80 -94 148 -207 148c-115 0 -235 -82 -235 -258c0 -173 112 -260 234 -260c143 0 197 98 203 159h-234v105h347v-359z" />
    <glyph glyph-name="H" unicode="H" horiz-adv-x="744" 
d="M659 0h-121v303h-333v-303h-120v709h120v-293h333v293h121v-709z" />
    <glyph glyph-name="I" unicode="I" horiz-adv-x="292" 
d="M207 0h-122v709h122v-709z" />
    <glyph glyph-name="J" unicode="J" horiz-adv-x="547" 
d="M20 214v46l117 24v-66c0 -83 47 -120 109 -120c64 0 104 43 104 115v496h120v-493c0 -126 -88 -231 -223 -231c-139 0 -227 91 -227 229z" />
    <glyph glyph-name="K" unicode="K" horiz-adv-x="685" 
d="M520 0l-221 307l-94 -103v-204h-120v709h120v-340l305 340h158l-287 -313l290 -396h-151z" />
    <glyph glyph-name="L" unicode="L" horiz-adv-x="555" 
d="M530 0h-445v709h120v-595h325v-114z" />
    <glyph glyph-name="M" unicode="M" horiz-adv-x="950" 
d="M865 0h-119v522l-221 -522h-104l-219 520v-520h-117v709h160l230 -541l227 541h163v-709z" />
    <glyph glyph-name="N" unicode="N" horiz-adv-x="765" 
d="M680 0h-125l-350 537v-537h-120v709h153l322 -503v503h120v-709z" />
    <glyph glyph-name="O" unicode="O" horiz-adv-x="805" 
d="M165 355c0 -171 118 -256 237 -256c120 0 238 85 238 256s-118 256 -238 256c-119 0 -237 -85 -237 -256zM42 355c0 232 174 369 360 369s361 -137 361 -369c0 -233 -175 -370 -361 -370s-360 137 -360 370z" />
    <glyph glyph-name="P" unicode="P" horiz-adv-x="602" 
d="M205 383h125c76 0 122 42 122 109c0 68 -46 111 -122 111h-125v-220zM348 277h-143v-277h-120v709h263c136 0 226 -92 226 -216c0 -125 -90 -216 -226 -216z" />
    <glyph glyph-name="Q" unicode="Q" horiz-adv-x="805" 
d="M42 355c0 232 174 369 360 369s361 -137 361 -369c0 -105 -36 -191 -92 -253l84 -94l-81 -69l-87 95c-55 -32 -120 -49 -185 -49c-186 0 -360 137 -360 370zM165 355c0 -171 118 -256 237 -256c36 0 73 7 106 23l-117 130l82 70l118 -131c30 41 49 95 49 164
c0 171 -118 256 -238 256c-119 0 -237 -85 -237 -256z" />
    <glyph glyph-name="R" unicode="R" horiz-adv-x="622" 
d="M443 0l-149 280h-88v-280h-121v709h272c137 0 222 -95 222 -215c0 -101 -61 -178 -160 -202l160 -292h-136zM206 386h129c74 0 122 43 122 108c0 66 -48 109 -122 109h-129v-217z" />
    <glyph glyph-name="S" unicode="S" horiz-adv-x="599" 
d="M551 543l-108 -34c-7 44 -44 109 -139 109c-72 0 -122 -48 -122 -102c0 -45 28 -79 83 -91l102 -21c125 -25 192 -104 192 -204c0 -110 -89 -215 -251 -215c-180 0 -263 116 -274 218l112 32c7 -74 60 -142 162 -142c85 0 129 43 129 98c0 46 -34 83 -95 96l-100 21
c-108 22 -180 93 -180 199c0 119 109 217 241 217c167 0 232 -102 248 -181z" />
    <glyph glyph-name="T" unicode="T" horiz-adv-x="607" 
d="M594 596h-231v-596h-120v596h-230v113h581v-113z" />
    <glyph glyph-name="U" unicode="U" horiz-adv-x="683" 
d="M341 -15c-148 0 -264 91 -264 262v462h119v-455c0 -100 55 -155 145 -155c91 0 145 55 145 155v455h120v-462c0 -171 -116 -262 -265 -262z" />
    <glyph glyph-name="V" unicode="V" horiz-adv-x="674" 
d="M338 157l199 552h127l-268 -709h-122l-264 709h130z" />
    <glyph glyph-name="W" unicode="W" horiz-adv-x="1017" 
d="M741 187l139 522h124l-199 -709h-124l-172 536l-172 -536h-123l-201 709h126l142 -518l166 518h125z" />
    <glyph glyph-name="X" unicode="X" horiz-adv-x="646" 
d="M631 709l-236 -355l235 -354h-144l-165 259l-167 -259h-141l237 355l-235 354h144l165 -260l166 260h141z" />
    <glyph glyph-name="Y" unicode="Y" horiz-adv-x="638" 
d="M258 300l-248 409h142l170 -297l171 297h135l-250 -409v-300h-120v300z" />
    <glyph glyph-name="Z" unicode="Z" horiz-adv-x="636" 
d="M595 0h-553v118l393 478h-382v113h537v-114l-398 -481h403v-114z" />
    <glyph glyph-name="bracketleft" unicode="[" horiz-adv-x="304" 
d="M299 -157h-214v956h214v-90h-116v-775h116v-91z" />
    <glyph glyph-name="backslash" unicode="\" horiz-adv-x="457" 
d="M348 -5l-348 719h110l347 -719h-109z" />
    <glyph glyph-name="bracketright" unicode="]" horiz-adv-x="304" 
d="M219 -157h-214v91h116v775h-116v90h214v-956z" />
    <glyph glyph-name="asciicircum" unicode="^" horiz-adv-x="526" 
d="M506 352h-113l-129 244l-130 -244h-114l196 358h94z" />
    <glyph glyph-name="underscore" unicode="_" horiz-adv-x="531" 
d="M521 -96h-511v96h511v-96z" />
    <glyph glyph-name="grave" unicode="`" horiz-adv-x="285" 
d="M161 548l-132 148h139l88 -148h-95z" />
    <glyph glyph-name="a" unicode="a" horiz-adv-x="532" 
d="M45 132c0 87 64 135 147 147l125 19c28 4 36 18 36 35c0 41 -28 74 -92 74c-61 0 -95 -39 -100 -88l-106 24c9 84 85 159 205 159c150 0 207 -85 207 -182v-242c0 -44 5 -73 6 -78h-108c-1 3 -5 23 -5 62c-23 -37 -71 -77 -150 -77c-102 0 -165 70 -165 147zM232 76
c65 0 121 31 121 126v22l-127 -19c-36 -6 -65 -26 -65 -66c0 -33 25 -63 71 -63z" />
    <glyph glyph-name="b" unicode="b" horiz-adv-x="604" 
d="M188 0h-113v724h114v-297c22 38 78 73 153 73c146 0 225 -111 225 -254c0 -147 -87 -258 -229 -258c-69 0 -122 30 -150 77v-65zM450 245c0 97 -54 152 -131 152c-74 0 -131 -55 -131 -152c0 -96 57 -154 131 -154c76 0 131 58 131 154z" />
    <glyph glyph-name="c" unicode="c" horiz-adv-x="541" 
d="M287 395c-71 0 -134 -53 -134 -151s63 -153 136 -153c76 0 111 53 122 90l102 -37c-23 -76 -96 -159 -224 -159c-143 0 -252 111 -252 259c0 150 109 258 249 258c131 0 203 -82 223 -160l-104 -38c-11 43 -44 91 -118 91z" />
    <glyph glyph-name="d" unicode="d" horiz-adv-x="602" 
d="M153 245c0 -93 52 -155 131 -155c76 0 129 63 129 156s-52 151 -128 151s-132 -59 -132 -152zM525 724v-635c0 -44 4 -81 5 -89h-111c-2 11 -5 43 -5 63c-23 -41 -74 -75 -143 -75c-140 0 -234 110 -234 257c0 140 95 255 232 255c85 0 128 -39 143 -70v294h113z" />
    <glyph glyph-name="e" unicode="e" horiz-adv-x="548" 
d="M156 297h239c-2 57 -40 108 -120 108c-73 0 -115 -56 -119 -108zM408 170l98 -31c-26 -85 -103 -154 -220 -154c-132 0 -249 96 -249 261c0 154 114 256 237 256c150 0 238 -99 238 -253c0 -19 -2 -35 -3 -37h-356c3 -74 61 -127 133 -127c70 0 106 37 122 85z" />
    <glyph glyph-name="f" unicode="f" horiz-adv-x="350" 
d="M291 625c-31 0 -72 -14 -72 -74v-64h113v-101h-113v-386h-117v386h-85v101h85v67c0 109 70 175 170 175c29 0 53 -6 61 -10v-99c-7 2 -20 5 -42 5z" />
    <glyph glyph-name="g" unicode="g" horiz-adv-x="589" 
d="M40 -27l107 28c8 -60 55 -105 122 -105c92 0 138 47 138 146v51c-21 -38 -70 -71 -141 -71c-130 0 -225 100 -225 237c0 130 91 237 225 237c76 0 123 -31 144 -71v62h112v-441c0 -130 -67 -251 -250 -251c-129 0 -219 80 -232 178zM285 121c74 0 125 54 125 138
c0 83 -53 137 -125 137c-74 0 -127 -54 -127 -137c0 -85 51 -138 127 -138z" />
    <glyph glyph-name="h" unicode="h" horiz-adv-x="574" 
d="M191 286v-286h-116v724h116v-284c33 43 88 61 139 61c120 0 178 -86 178 -193v-308h-116v288c0 60 -27 108 -100 108c-64 0 -99 -48 -101 -110z" />
    <glyph glyph-name="i" unicode="i" horiz-adv-x="265" 
d="M190 0h-115v487h115v-487zM57 658c0 42 34 76 75 76c42 0 76 -34 76 -76s-34 -75 -76 -75c-41 0 -75 33 -75 75z" />
    <glyph glyph-name="j" unicode="j" horiz-adv-x="266" 
d="M75 -40v527h116v-536c0 -91 -55 -156 -145 -156c-39 0 -61 7 -66 9v96c5 -1 22 -3 35 -3c44 0 60 23 60 63zM57 659c0 42 34 76 75 76c42 0 76 -34 76 -76c0 -41 -34 -75 -76 -75c-41 0 -75 34 -75 75z" />
    <glyph glyph-name="k" unicode="k" horiz-adv-x="544" 
d="M531 487l-200 -206l204 -281h-142l-143 199l-60 -63v-136h-115v724h115v-434l187 197h154z" />
    <glyph glyph-name="l" unicode="l" horiz-adv-x="266" 
d="M191 0h-116v724h116v-724z" />
    <glyph glyph-name="m" unicode="m" horiz-adv-x="873" 
d="M190 0h-115v487h111v-62c28 50 89 76 144 76c64 0 120 -29 146 -86c38 64 95 86 158 86c88 0 172 -56 172 -185v-316h-112v297c0 57 -29 100 -94 100c-61 0 -101 -48 -101 -108v-289h-114v297c0 56 -28 100 -94 100c-62 0 -101 -46 -101 -108v-289z" />
    <glyph glyph-name="n" unicode="n" horiz-adv-x="574" 
d="M191 281v-281h-116v487h113v-65c32 56 90 79 144 79c119 0 176 -86 176 -193v-308h-116v288c0 60 -27 108 -100 108c-66 0 -101 -51 -101 -115z" />
    <glyph glyph-name="o" unicode="o" horiz-adv-x="579" 
d="M289 89c72 0 136 53 136 155c0 101 -64 153 -136 153c-71 0 -136 -52 -136 -153s65 -155 136 -155zM289 502c146 0 253 -109 253 -258c0 -150 -107 -259 -253 -259c-145 0 -252 109 -252 259c0 149 107 258 252 258z" />
    <glyph glyph-name="p" unicode="p" horiz-adv-x="604" 
d="M190 -190h-115v677h112v-66c24 42 80 77 155 77c144 0 225 -110 225 -254c0 -146 -89 -256 -229 -256c-70 0 -123 30 -148 67v-245zM451 244c0 91 -53 151 -131 151c-76 0 -131 -60 -131 -151c0 -93 55 -153 131 -153c77 0 131 60 131 153z" />
    <glyph glyph-name="q" unicode="q" horiz-adv-x="596" 
d="M528 -190h-114v248c-24 -43 -75 -70 -143 -70c-139 0 -234 112 -234 257c0 140 89 254 231 254c85 0 132 -42 149 -77v65h111v-677zM154 245c0 -93 54 -155 130 -155s131 62 131 155s-55 151 -131 151c-77 0 -130 -58 -130 -151z" />
    <glyph glyph-name="r" unicode="r" horiz-adv-x="380" 
d="M360 490v-118c-13 2 -26 3 -38 3c-90 0 -131 -52 -131 -143v-232h-116v487h113v-78c23 53 77 84 141 84c14 0 26 -2 31 -3z" />
    <glyph glyph-name="s" unicode="s" horiz-adv-x="457" 
d="M32 132l101 28c4 -44 37 -83 99 -83c48 0 73 26 73 56c0 26 -18 46 -57 54l-72 16c-86 19 -131 75 -131 142c0 85 78 157 179 157c136 0 180 -88 188 -136l-98 -28c-4 28 -25 73 -90 73c-41 0 -70 -26 -70 -56c0 -26 19 -45 49 -51l74 -15c92 -20 140 -76 140 -148
c0 -74 -60 -156 -184 -156c-141 0 -195 92 -201 147z" />
    <glyph glyph-name="t" unicode="t" horiz-adv-x="365" 
d="M222 636v-149h101v-103h-101v-226c0 -43 19 -61 62 -61c16 0 35 3 40 4v-96c-7 -3 -29 -11 -71 -11c-90 0 -146 54 -146 145v245h-90v103h25c52 0 75 33 75 76v73h105z" />
    <glyph glyph-name="u" unicode="u" horiz-adv-x="577" 
d="M392 54c-24 -44 -81 -68 -138 -68c-116 0 -184 86 -184 194v307h116v-286c0 -60 28 -111 98 -111c67 0 102 45 102 109v288h116v-398c0 -40 3 -71 5 -89h-111c-2 11 -4 34 -4 54z" />
    <glyph glyph-name="v" unicode="v" horiz-adv-x="525" 
d="M515 487l-191 -487h-116l-198 487h128l129 -348l126 348h122z" />
    <glyph glyph-name="w" unicode="w" horiz-adv-x="814" 
d="M351 487h120l115 -337l97 337h118l-156 -487h-116l-121 350l-118 -350h-119l-158 487h124l99 -337z" />
    <glyph glyph-name="x" unicode="x" horiz-adv-x="513" 
d="M11 0l177 246l-174 241h138c9 -15 98 -142 107 -156l106 156h132l-171 -239l177 -248h-136l-113 163c-10 -15 -101 -148 -110 -163h-133z" />
    <glyph glyph-name="y" unicode="y" horiz-adv-x="543" 
d="M223 -197h-124l117 255l-208 429h131l140 -308l131 308h123z" />
    <glyph glyph-name="z" unicode="z" horiz-adv-x="474" 
d="M436 0h-398v101l247 284h-242v102h388v-98l-250 -287h255v-102z" />
    <glyph glyph-name="braceleft" unicode="{" horiz-adv-x="365" 
d="M45 273v100c57 0 105 26 105 96v140c0 128 69 190 187 190h23v-89h-22c-60 0 -90 -28 -90 -97v-166c0 -65 -38 -110 -102 -124c64 -15 102 -60 102 -125v-166c0 -69 30 -96 90 -96h22v-89h-23c-118 0 -187 62 -187 190v139c0 71 -48 97 -105 97z" />
    <glyph glyph-name="bar" unicode="|" horiz-adv-x="268" 
d="M183 -153h-98v952h98v-952z" />
    <glyph glyph-name="braceright" unicode="}" horiz-adv-x="365" 
d="M320 373v-100c-57 0 -105 -26 -105 -97v-139c0 -128 -69 -190 -187 -190h-23v89h22c60 0 90 27 90 96v166c0 65 38 110 102 125c-64 14 -102 59 -102 124v166c0 69 -30 97 -90 97h-22v89h23c118 0 187 -62 187 -190v-140c0 -70 48 -96 105 -96z" />
    <glyph glyph-name="asciitilde" unicode="~" horiz-adv-x="577" 
d="M287 236l-47 25c-18 9 -35 14 -52 14c-35 0 -67 -20 -92 -54l-66 53c37 65 95 100 159 100c33 0 67 -8 101 -27l46 -25c18 -10 37 -15 55 -15c35 0 68 19 90 53l66 -53c-37 -65 -94 -99 -158 -99c-33 0 -67 9 -102 28z" />
    <glyph glyph-name="uni00A0" unicode="&#xa0;" horiz-adv-x="248" 
 />
    <glyph glyph-name="exclamdown" unicode="&#xa1;" horiz-adv-x="291" 
d="M187 285l29 -498h-142l30 498h83zM72 429c0 40 33 73 73 73s74 -33 74 -73c0 -41 -34 -73 -74 -73s-73 32 -73 73z" />
    <glyph glyph-name="cent" unicode="&#xa2;" horiz-adv-x="546" 
d="M325 0h-91v90c-110 22 -189 116 -189 235c0 121 80 212 189 234v90h91v-88c99 -15 155 -82 172 -145l-100 -35c-8 31 -30 65 -72 78v-271c46 13 70 51 78 79l98 -35c-20 -63 -77 -131 -176 -145v-87zM154 325c0 -67 33 -113 80 -132v262c-47 -19 -80 -63 -80 -130z" />
    <glyph glyph-name="sterling" unicode="&#xa3;" horiz-adv-x="593" 
d="M67 368h64c-13 30 -23 63 -23 105c0 104 84 190 206 190c156 0 206 -102 209 -183l-110 -18c-1 66 -39 101 -97 101c-48 0 -93 -31 -93 -92c0 -37 13 -70 27 -103h188v-95h-159c1 -8 2 -16 2 -24c0 -61 -28 -115 -83 -146h177c58 0 88 43 88 94l108 -12
c0 -107 -67 -185 -173 -185h-336v104c66 25 107 76 107 133c0 12 -2 24 -4 36h-98v95z" />
    <glyph glyph-name="currency" unicode="&#xa4;" horiz-adv-x="585" 
d="M80 242c0 42 12 81 33 114l-74 75l72 71l74 -76c32 19 70 30 110 30c38 0 75 -10 106 -28l73 74l71 -71l-70 -72c22 -33 35 -74 35 -117s-13 -83 -34 -116l69 -70l-70 -70l-71 72c-32 -19 -70 -29 -109 -29c-41 0 -79 11 -112 31l-73 -74l-71 70l73 74
c-21 32 -32 71 -32 112zM179 242c0 -68 50 -117 116 -117s115 49 115 117s-49 117 -115 117s-116 -49 -116 -117z" />
    <glyph glyph-name="yen" unicode="&#xa5;" horiz-adv-x="600" 
d="M535 144h-174v-144h-116v144h-171v84h171v74h-171v84h111l-162 262h135l146 -251l142 251h130l-158 -262h117v-84h-174v-74h174v-84z" />
    <glyph glyph-name="brokenbar" unicode="&#xa6;" horiz-adv-x="268" 
d="M85 799h98v-399h-98v399zM85 245h98v-399h-98v399z" />
    <glyph glyph-name="section" unicode="&#xa7;" horiz-adv-x="566" 
d="M488 246c0 -61 -41 -105 -80 -125c53 -37 82 -90 82 -144c0 -115 -100 -189 -209 -189c-129 0 -202 76 -205 187l109 20c0 -68 34 -109 97 -109c53 0 90 30 90 81c0 31 -19 58 -50 74l-103 53c-75 38 -140 82 -140 173c0 61 41 105 80 125c-54 37 -82 88 -82 144
c0 115 100 188 209 188c129 0 203 -80 205 -186l-110 -20c0 69 -35 108 -96 108c-54 0 -91 -33 -91 -81c0 -30 18 -56 51 -73l102 -53c74 -38 141 -83 141 -173zM327 301l-102 54c-22 -15 -38 -39 -38 -67c0 -32 13 -56 52 -76l101 -54c22 15 39 38 39 67
c0 32 -14 55 -52 76z" />
    <glyph glyph-name="dieresis" unicode="&#xa8;" horiz-adv-x="393" 
d="M32 625c0 36 28 65 64 65c37 0 66 -29 66 -65c0 -37 -29 -65 -66 -65c-36 0 -64 28 -64 65zM232 625c0 36 28 65 64 65s65 -29 65 -65c0 -37 -29 -65 -65 -65s-64 28 -64 65z" />
    <glyph glyph-name="copyright" unicode="&#xa9;" horiz-adv-x="818" 
d="M124 355c0 -166 124 -294 284 -294c159 0 284 128 284 294c0 165 -125 293 -284 293c-160 0 -284 -128 -284 -293zM42 355c0 203 163 369 366 369s368 -166 368 -369c0 -204 -165 -370 -368 -370s-366 166 -366 370zM412 473c-56 0 -106 -41 -106 -118s50 -120 107 -120
c60 0 87 41 96 70l80 -29c-18 -60 -75 -125 -176 -125c-112 0 -198 87 -198 204c0 118 86 203 196 203c103 0 159 -65 175 -126l-82 -30c-8 34 -34 71 -92 71z" />
    <glyph glyph-name="ordfeminine" unicode="&#xaa;" horiz-adv-x="425" 
d="M59 399c0 61 46 95 103 103l86 13c19 3 26 13 26 24c0 26 -20 47 -61 47c-40 0 -63 -26 -66 -57l-81 17c6 56 57 113 147 113c108 0 148 -61 148 -130v-169c0 -28 3 -51 4 -55h-82c-1 3 -4 20 -4 42c-17 -27 -50 -52 -102 -52c-73 0 -118 49 -118 104zM196 363
c40 0 78 20 78 82v15l-82 -12c-24 -4 -43 -17 -43 -44c0 -21 15 -41 47 -41z" />
    <glyph glyph-name="guillemotleft" unicode="&#xab;" horiz-adv-x="500" 
d="M274 100h-111l-135 193l136 194h111l-134 -195zM481 100h-111l-135 193l136 194h111l-134 -195z" />
    <glyph glyph-name="logicalnot" unicode="&#xac;" horiz-adv-x="583" 
d="M523 142h-101v195h-377v97h478v-292z" />
    <glyph glyph-name="uni00AD" unicode="&#xad;" horiz-adv-x="372" 
d="M327 241h-282v103h282v-103z" />
    <glyph glyph-name="registered" unicode="&#xae;" horiz-adv-x="818" 
d="M42 355c0 203 163 369 366 369s368 -166 368 -369c0 -204 -165 -370 -368 -370s-366 166 -366 370zM124 355c0 -166 124 -294 284 -294c159 0 284 128 284 294c0 165 -125 293 -284 293c-160 0 -284 -128 -284 -293zM471 157l-76 144h-29v-144h-86v401h149
c78 0 137 -57 137 -128c0 -55 -33 -99 -82 -118l85 -155h-98zM366 374h49c40 0 63 21 63 55c0 35 -23 56 -63 56h-49v-111z" />
    <glyph glyph-name="macron" unicode="&#xaf;" horiz-adv-x="338" 
d="M308 577h-278v90h278v-90z" />
    <glyph glyph-name="degree" unicode="&#xb0;" horiz-adv-x="372" 
d="M115 500c0 -43 31 -74 71 -74s70 31 70 74s-30 73 -70 73s-71 -30 -71 -73zM22 500c0 90 75 161 164 161c88 0 164 -71 164 -161c0 -91 -76 -160 -165 -160c-88 0 -163 70 -163 160z" />
    <glyph glyph-name="plusminus" unicode="&#xb1;" horiz-adv-x="581" 
d="M63 405h178v129h99v-129h178v-94h-178v-128h-99v128h-178v94zM63 143h455v-96h-455v96z" />
    <glyph glyph-name="twosuperior" unicode="&#xb2;" horiz-adv-x="392" 
d="M146 567l-84 -1c-2 10 -3 21 -3 30c0 65 49 121 138 121c87 0 137 -55 137 -119c0 -47 -28 -83 -75 -111l-71 -43c-10 -7 -18 -16 -20 -25h169v-76h-281v12c0 63 24 114 87 152l60 36c27 16 41 35 41 56c0 22 -16 44 -49 44c-32 0 -52 -21 -52 -52c0 -5 1 -16 3 -24z" />
    <glyph glyph-name="threesuperior" unicode="&#xb3;" horiz-adv-x="412" 
d="M55 444l80 24c5 -33 32 -58 69 -58s61 22 61 49c0 37 -30 51 -61 51c-12 0 -21 -2 -31 -6l-32 61l91 69h-164v75h279v-72l-94 -69c59 -6 103 -45 103 -110c0 -67 -58 -123 -151 -123c-89 0 -140 54 -150 109z" />
    <glyph glyph-name="acute" unicode="&#xb4;" horiz-adv-x="286" 
d="M256 696l-131 -148h-95l89 148h137z" />
    <glyph glyph-name="mu" unicode="&#xb5;" horiz-adv-x="584" 
d="M397 54c-24 -44 -81 -68 -138 -68c-25 0 -48 4 -68 12v-188h-116v677h116v-286c0 -60 28 -111 98 -111c67 0 102 45 102 109v288h116v-398c0 -31 2 -62 5 -89h-111c-2 11 -4 34 -4 54z" />
    <glyph glyph-name="paragraph" unicode="&#xb6;" horiz-adv-x="648" 
d="M341 616v-813h-95v507h-17c-108 0 -199 85 -199 195c0 132 106 204 232 204h366v-93h-97v-813h-95v813h-95z" />
    <glyph glyph-name="periodcentered" unicode="&#xb7;" horiz-adv-x="284" 
d="M65 298c0 43 35 78 78 78c44 0 79 -35 79 -78c0 -44 -35 -77 -79 -77c-43 0 -78 33 -78 77z" />
    <glyph glyph-name="cedilla" unicode="&#xb8;" horiz-adv-x="296" 
d="M117 -105l-35 43l48 75h78l-39 -60c57 -1 97 -34 97 -84c0 -47 -35 -92 -123 -92c-53 0 -96 24 -115 48l41 50c13 -13 38 -35 73 -35c24 0 44 9 44 30c0 16 -15 30 -41 30c-9 0 -20 -2 -28 -5z" />
    <glyph glyph-name="onesuperior" unicode="&#xb9;" horiz-adv-x="298" 
d="M223 343h-91v233h-89v60c57 1 91 37 98 73h82v-366z" />
    <glyph glyph-name="ordmasculine" unicode="&#xba;" horiz-adv-x="483" 
d="M242 376c47 0 89 34 89 101s-42 100 -89 100s-89 -33 -89 -100c0 -66 42 -101 89 -101zM242 659c103 0 180 -76 180 -182s-77 -182 -180 -182s-180 76 -180 182s77 182 180 182z" />
    <glyph glyph-name="guillemotright" unicode="&#xbb;" horiz-adv-x="500" 
d="M337 100h-111l133 192l-134 195h111l136 -194zM130 100h-111l133 192l-134 195h111l136 -194z" />
    <glyph glyph-name="onequarter" unicode="&#xbc;" horiz-adv-x="796" 
d="M230 282h-91v233h-89v60c57 1 91 37 98 73h82v-366zM417 71v88l172 207h99v-222h62v-73h-62v-71h-90v71h-181zM598 144v125l-103 -125h103zM195 0h-105l462 648h104z" />
    <glyph glyph-name="onehalf" unicode="&#xbd;" horiz-adv-x="805" 
d="M230 282h-91v233h-89v60c57 1 91 37 98 73h82v-366zM194 0h-105l462 648h104zM567 224l-84 -1c-2 10 -3 21 -3 30c0 65 49 121 138 121c87 0 137 -55 137 -119c0 -47 -28 -83 -75 -111l-71 -43c-10 -7 -18 -16 -20 -25h169v-76h-281v12c0 63 24 114 87 152l60 36
c27 16 41 35 41 56c0 22 -16 44 -49 44c-32 0 -52 -21 -52 -52c0 -5 1 -16 3 -24z" />
    <glyph glyph-name="threequarters" unicode="&#xbe;" horiz-adv-x="869" 
d="M52 383l80 24c5 -33 32 -58 69 -58s61 22 61 49c0 37 -30 51 -61 51c-12 0 -21 -2 -31 -6l-32 61l91 69h-164v75h279v-72l-94 -69c59 -6 103 -45 103 -110c0 -67 -58 -123 -151 -123c-89 0 -140 54 -150 109zM491 71v88l172 207h99v-222h62v-73h-62v-71h-90v71h-181z
M672 144v125l-103 -125h103zM280 0h-105l462 648h104z" />
    <glyph glyph-name="questiondown" unicode="&#xbf;" horiz-adv-x="487" 
d="M208 286h99c2 -12 3 -24 3 -38c0 -60 -22 -109 -80 -150l-46 -33c-33 -24 -47 -54 -47 -88c0 -52 35 -100 108 -100c77 0 112 58 112 116c0 15 -2 33 -6 45l114 -12c4 -14 5 -30 5 -46c0 -100 -74 -208 -225 -208c-149 0 -228 99 -228 200c0 80 41 135 99 176l43 30
c32 23 49 58 49 98v10zM184 429c0 40 32 73 73 73c40 0 73 -33 73 -73s-33 -73 -73 -73c-41 0 -73 33 -73 73z" />
    <glyph glyph-name="Agrave" unicode="&#xc0;" horiz-adv-x="711" 
d="M570 0l-67 178h-300l-66 -178h-127l276 709h139l276 -709h-131zM353 579l-108 -290h216zM306 759l-143 124h148l103 -124h-108z" />
    <glyph glyph-name="Aacute" unicode="&#xc1;" horiz-adv-x="711" 
d="M570 0l-67 178h-300l-66 -178h-127l276 709h139l276 -709h-131zM353 579l-108 -290h216zM546 883l-142 -124h-109l102 124h149z" />
    <glyph glyph-name="Acircumflex" unicode="&#xc2;" horiz-adv-x="711" 
d="M570 0l-67 178h-300l-66 -178h-127l276 709h139l276 -709h-131zM353 579l-108 -290h216zM278 759h-107l116 124h129l119 -124h-110l-75 64z" />
    <glyph glyph-name="Atilde" unicode="&#xc3;" horiz-adv-x="711" 
d="M570 0l-67 178h-300l-66 -178h-127l276 709h139l276 -709h-131zM353 579l-108 -290h216zM517 886v-23c0 -73 -44 -110 -99 -110c-29 0 -53 11 -73 23l-10 7c-16 10 -30 17 -45 17s-30 -11 -30 -33v-10h-75v22c0 74 45 110 100 110c29 0 54 -11 74 -23l10 -6
c16 -9 30 -17 43 -17c17 0 31 9 31 33v10h74z" />
    <glyph glyph-name="Adieresis" unicode="&#xc4;" horiz-adv-x="711" 
d="M134 821c0 37 29 67 66 67c38 0 67 -30 67 -67s-29 -66 -67 -66c-37 0 -66 29 -66 66zM441 821c0 37 28 67 65 67c38 0 67 -30 67 -67s-29 -66 -67 -66c-37 0 -65 29 -65 66zM570 0l-67 178h-300l-66 -178h-127l276 709h139l276 -709h-131zM353 579l-108 -290h216z" />
    <glyph glyph-name="Aring" unicode="&#xc5;" horiz-adv-x="711" 
d="M353 579l-108 -290h216zM353 709c28 0 50 20 50 50c0 29 -22 49 -50 49s-50 -20 -50 -49c0 -30 22 -50 50 -50zM483 759c0 -38 -16 -70 -42 -93l260 -666h-131l-67 178h-300l-66 -178h-127l258 663c-27 23 -44 57 -44 96c0 72 60 126 129 126c70 0 130 -54 130 -126z" />
    <glyph glyph-name="AE" unicode="&#xc6;" horiz-adv-x="1044" 
d="M986 0h-438v180h-277l-115 -180h-149l470 709h509v-112h-318v-188h288v-109h-288v-188h318v-112zM337 283h211v328z" />
    <glyph glyph-name="Ccedilla" unicode="&#xc7;" horiz-adv-x="758" 
d="M370 -105l-35 43l31 49c-177 15 -324 150 -324 367c0 231 173 370 357 370c180 0 287 -106 319 -230l-113 -38c-21 86 -87 155 -206 155c-117 0 -234 -85 -234 -257c0 -166 114 -254 235 -254c119 0 187 76 211 156l110 -36c-30 -110 -123 -216 -277 -232l-22 -35
c57 -1 97 -34 97 -84c0 -47 -35 -92 -123 -92c-53 0 -96 24 -115 48l41 50c13 -13 38 -35 73 -35c24 0 44 9 44 30c0 16 -15 30 -41 30c-9 0 -20 -2 -28 -5z" />
    <glyph glyph-name="Egrave" unicode="&#xc8;" horiz-adv-x="582" 
d="M280 759l-143 124h148l103 -124h-108zM523 0h-438v709h438v-112h-318v-188h288v-109h-288v-188h318v-112z" />
    <glyph glyph-name="Eacute" unicode="&#xc9;" horiz-adv-x="582" 
d="M474 883l-142 -124h-109l102 124h149zM523 0h-438v709h438v-112h-318v-188h288v-109h-288v-188h318v-112z" />
    <glyph glyph-name="Ecircumflex" unicode="&#xca;" horiz-adv-x="582" 
d="M228 759h-107l116 124h129l119 -124h-110l-75 64zM523 0h-438v709h438v-112h-318v-188h288v-109h-288v-188h318v-112z" />
    <glyph glyph-name="Edieresis" unicode="&#xcb;" horiz-adv-x="582" 
d="M125 821c0 37 29 67 66 67s67 -30 67 -67s-30 -66 -67 -66s-66 29 -66 66zM353 821c0 37 28 67 66 67c37 0 66 -30 66 -67s-29 -66 -66 -66c-38 0 -66 29 -66 66zM523 0h-438v709h438v-112h-318v-188h288v-109h-288v-188h318v-112z" />
    <glyph glyph-name="Igrave" unicode="&#xcc;" horiz-adv-x="292" 
d="M207 0h-122v709h122v-709zM96 759l-143 124h148l103 -124h-108z" />
    <glyph glyph-name="Iacute" unicode="&#xcd;" horiz-adv-x="292" 
d="M207 0h-122v709h122v-709zM339 883l-142 -124h-109l102 124h149z" />
    <glyph glyph-name="Icircumflex" unicode="&#xce;" horiz-adv-x="292" 
d="M207 0h-122v709h122v-709zM76 759h-107l116 124h129l119 -124h-110l-75 64z" />
    <glyph glyph-name="Idieresis" unicode="&#xcf;" horiz-adv-x="292" 
d="M-2 821c0 35 27 63 62 63s63 -28 63 -63s-28 -63 -63 -63s-62 28 -62 63zM171 821c0 35 27 63 63 63c35 0 62 -28 62 -63s-27 -63 -62 -63c-36 0 -63 28 -63 63zM207 0h-122v709h122v-709z" />
    <glyph glyph-name="Eth" unicode="&#xd0;" horiz-adv-x="740" 
d="M349 0h-250v319h-82v93h82v297h251c193 0 345 -128 345 -356c0 -227 -154 -353 -346 -353zM219 110h126c123 0 225 79 225 243c0 166 -101 246 -224 246h-127v-187h131v-93h-131v-209z" />
    <glyph glyph-name="Ntilde" unicode="&#xd1;" horiz-adv-x="765" 
d="M550 886v-23c0 -73 -44 -110 -99 -110c-29 0 -53 11 -73 23l-10 7c-16 10 -30 17 -45 17s-30 -11 -30 -33v-10h-75v22c0 74 45 110 100 110c29 0 54 -11 74 -23l10 -6c16 -9 30 -17 43 -17c17 0 31 9 31 33v10h74zM680 0h-125l-350 537v-537h-120v709h153l322 -503v503
h120v-709z" />
    <glyph glyph-name="Ograve" unicode="&#xd2;" horiz-adv-x="805" 
d="M353 759l-143 124h148l103 -124h-108zM165 355c0 -171 118 -256 237 -256c120 0 238 85 238 256s-118 256 -238 256c-119 0 -237 -85 -237 -256zM42 355c0 232 174 369 360 369s361 -137 361 -369c0 -233 -175 -370 -361 -370s-360 137 -360 370z" />
    <glyph glyph-name="Oacute" unicode="&#xd3;" horiz-adv-x="805" 
d="M590 883l-142 -124h-109l102 124h149zM165 355c0 -171 118 -256 237 -256c120 0 238 85 238 256s-118 256 -238 256c-119 0 -237 -85 -237 -256zM42 355c0 232 174 369 360 369s361 -137 361 -369c0 -233 -175 -370 -361 -370s-360 137 -360 370z" />
    <glyph glyph-name="Ocircumflex" unicode="&#xd4;" horiz-adv-x="805" 
d="M328 759h-107l116 124h129l119 -124h-110l-75 64zM165 355c0 -171 118 -256 237 -256c120 0 238 85 238 256s-118 256 -238 256c-119 0 -237 -85 -237 -256zM42 355c0 232 174 369 360 369s361 -137 361 -369c0 -233 -175 -370 -361 -370s-360 137 -360 370z" />
    <glyph glyph-name="Otilde" unicode="&#xd5;" horiz-adv-x="805" 
d="M569 887v-23c0 -73 -44 -110 -99 -110c-29 0 -53 11 -73 23l-10 7c-16 10 -30 17 -45 17s-30 -11 -30 -33v-10h-75v22c0 74 45 110 100 110c29 0 54 -11 74 -23l10 -6c16 -9 30 -17 43 -17c17 0 31 9 31 33v10h74zM165 355c0 -171 118 -256 237 -256
c120 0 238 85 238 256s-118 256 -238 256c-119 0 -237 -85 -237 -256zM42 355c0 232 174 369 360 369s361 -137 361 -369c0 -233 -175 -370 -361 -370s-360 137 -360 370z" />
    <glyph glyph-name="Odieresis" unicode="&#xd6;" horiz-adv-x="805" 
d="M175 821c0 37 29 67 66 67s67 -30 67 -67s-30 -66 -67 -66s-66 29 -66 66zM498 821c0 37 29 67 66 67s67 -30 67 -67s-30 -66 -67 -66s-66 29 -66 66zM165 355c0 -171 118 -256 237 -256c120 0 238 85 238 256s-118 256 -238 256c-119 0 -237 -85 -237 -256zM42 355
c0 232 174 369 360 369s361 -137 361 -369c0 -233 -175 -370 -361 -370s-360 137 -360 370z" />
    <glyph glyph-name="multiply" unicode="&#xd7;" horiz-adv-x="548" 
d="M441 51l-167 171l-167 -171l-69 69l168 172l-167 171l69 69l166 -171l166 171l69 -69l-167 -171l168 -172z" />
    <glyph glyph-name="Oslash" unicode="&#xd8;" horiz-adv-x="805" 
d="M42 355c0 232 174 369 360 369c66 0 130 -18 186 -50l71 91l78 -60l-72 -92c60 -63 98 -150 98 -258c0 -233 -175 -370 -361 -370c-65 0 -129 16 -185 48l-68 -88l-80 59l71 91c-60 63 -98 151 -98 260zM165 355c0 -69 18 -123 49 -164l303 391c-35 19 -75 29 -115 29
c-119 0 -237 -85 -237 -256zM640 355c0 67 -19 121 -48 162l-303 -391c35 -18 74 -27 113 -27c120 0 238 85 238 256z" />
    <glyph glyph-name="Ugrave" unicode="&#xd9;" horiz-adv-x="683" 
d="M307 759l-143 124h148l103 -124h-108zM341 -15c-148 0 -264 91 -264 262v462h119v-455c0 -100 55 -155 145 -155c91 0 145 55 145 155v455h120v-462c0 -171 -116 -262 -265 -262z" />
    <glyph glyph-name="Uacute" unicode="&#xda;" horiz-adv-x="683" 
d="M513 883l-142 -124h-109l102 124h149zM341 -15c-148 0 -264 91 -264 262v462h119v-455c0 -100 55 -155 145 -155c91 0 145 55 145 155v455h120v-462c0 -171 -116 -262 -265 -262z" />
    <glyph glyph-name="Ucircumflex" unicode="&#xdb;" horiz-adv-x="683" 
d="M267 759h-107l116 124h129l119 -124h-110l-75 64zM341 -15c-148 0 -264 91 -264 262v462h119v-455c0 -100 55 -155 145 -155c91 0 145 55 145 155v455h120v-462c0 -171 -116 -262 -265 -262z" />
    <glyph glyph-name="Udieresis" unicode="&#xdc;" horiz-adv-x="683" 
d="M158 821c0 37 28 67 66 67c37 0 66 -30 66 -67s-29 -66 -66 -66c-38 0 -66 29 -66 66zM394 821c0 37 28 67 66 67c37 0 66 -30 66 -67s-29 -66 -66 -66c-38 0 -66 29 -66 66zM341 -15c-148 0 -264 91 -264 262v462h119v-455c0 -100 55 -155 145 -155c91 0 145 55 145 155
v455h120v-462c0 -171 -116 -262 -265 -262z" />
    <glyph glyph-name="Yacute" unicode="&#xdd;" horiz-adv-x="638" 
d="M258 300l-248 409h142l170 -297l171 297h135l-250 -409v-300h-120v300zM494 883l-142 -124h-109l102 124h149z" />
    <glyph glyph-name="Thorn" unicode="&#xde;" horiz-adv-x="599" 
d="M205 251h125c76 0 122 43 122 109c0 69 -46 112 -122 112h-125v-221zM343 147h-138v-147h-120v709h120v-133h137c134 0 232 -92 232 -215s-98 -214 -231 -214z" />
    <glyph glyph-name="germandbls" unicode="&#xdf;" horiz-adv-x="583" 
d="M381 343c1 -22 15 -30 41 -41l33 -15c61 -27 108 -80 108 -151c0 -67 -52 -151 -171 -151c-121 0 -166 84 -167 142l96 22c1 -29 18 -73 71 -73c41 0 61 28 61 52c0 29 -16 48 -50 63l-32 14c-49 21 -107 53 -107 130c0 55 31 91 65 113l25 17c32 20 53 44 53 77
c0 42 -34 80 -102 80c-61 0 -116 -44 -116 -140v-482h-114v489c0 155 106 235 230 235c132 0 217 -79 217 -177c0 -78 -43 -120 -88 -149l-24 -15c-17 -10 -29 -21 -29 -40z" />
    <glyph glyph-name="agrave" unicode="&#xe0;" horiz-adv-x="532" 
d="M45 132c0 87 64 135 147 147l125 19c28 4 36 18 36 35c0 41 -28 74 -92 74c-61 0 -95 -39 -100 -88l-106 24c9 84 85 159 205 159c150 0 207 -85 207 -182v-242c0 -44 5 -73 6 -78h-108c-1 3 -5 23 -5 62c-23 -37 -71 -77 -150 -77c-102 0 -165 70 -165 147zM232 76
c65 0 121 31 121 126v22l-127 -19c-36 -6 -65 -26 -65 -66c0 -33 25 -63 71 -63zM230 548l-132 148h139l88 -148h-95z" />
    <glyph glyph-name="aacute" unicode="&#xe1;" horiz-adv-x="532" 
d="M45 132c0 87 64 135 147 147l125 19c28 4 36 18 36 35c0 41 -28 74 -92 74c-61 0 -95 -39 -100 -88l-106 24c9 84 85 159 205 159c150 0 207 -85 207 -182v-242c0 -44 5 -73 6 -78h-108c-1 3 -5 23 -5 62c-23 -37 -71 -77 -150 -77c-102 0 -165 70 -165 147zM232 76
c65 0 121 31 121 126v22l-127 -19c-36 -6 -65 -26 -65 -66c0 -33 25 -63 71 -63zM422 696l-131 -148h-95l89 148h137z" />
    <glyph glyph-name="acircumflex" unicode="&#xe2;" horiz-adv-x="532" 
d="M45 132c0 87 64 135 147 147l125 19c28 4 36 18 36 35c0 41 -28 74 -92 74c-61 0 -95 -39 -100 -88l-106 24c9 84 85 159 205 159c150 0 207 -85 207 -182v-242c0 -44 5 -73 6 -78h-108c-1 3 -5 23 -5 62c-23 -37 -71 -77 -150 -77c-102 0 -165 70 -165 147zM232 76
c65 0 121 31 121 126v22l-127 -19c-36 -6 -65 -26 -65 -66c0 -33 25 -63 71 -63zM193 549h-97l107 143h121l108 -143h-99l-70 77z" />
    <glyph glyph-name="atilde" unicode="&#xe3;" horiz-adv-x="532" 
d="M45 132c0 87 64 135 147 147l125 19c28 4 36 18 36 35c0 41 -28 74 -92 74c-61 0 -95 -39 -100 -88l-106 24c9 84 85 159 205 159c150 0 207 -85 207 -182v-242c0 -44 5 -73 6 -78h-108c-1 3 -5 23 -5 62c-23 -37 -71 -77 -150 -77c-102 0 -165 70 -165 147zM232 76
c65 0 121 31 121 126v22l-127 -19c-36 -6 -65 -26 -65 -66c0 -33 25 -63 71 -63zM102 556l-1 18c0 78 45 115 103 115c29 0 50 -10 70 -22l10 -6c15 -9 28 -17 43 -17c20 0 31 13 31 44h76v-17c0 -78 -44 -117 -102 -117c-29 0 -51 11 -71 23l-10 6c-15 9 -28 16 -43 16
c-20 0 -30 -12 -30 -43h-76z" />
    <glyph glyph-name="adieresis" unicode="&#xe4;" horiz-adv-x="532" 
d="M45 132c0 87 64 135 147 147l125 19c28 4 36 18 36 35c0 41 -28 74 -92 74c-61 0 -95 -39 -100 -88l-106 24c9 84 85 159 205 159c150 0 207 -85 207 -182v-242c0 -44 5 -73 6 -78h-108c-1 3 -5 23 -5 62c-23 -37 -71 -77 -150 -77c-102 0 -165 70 -165 147zM232 76
c65 0 121 31 121 126v22l-127 -19c-36 -6 -65 -26 -65 -66c0 -33 25 -63 71 -63zM99 625c0 36 28 65 64 65c37 0 66 -29 66 -65c0 -37 -29 -65 -66 -65c-36 0 -64 28 -64 65zM299 625c0 36 28 65 64 65s65 -29 65 -65c0 -37 -29 -65 -65 -65s-64 28 -64 65z" />
    <glyph glyph-name="aring" unicode="&#xe5;" horiz-adv-x="532" 
d="M45 132c0 87 64 135 147 147l125 19c28 4 36 18 36 35c0 41 -28 74 -92 74c-61 0 -95 -39 -100 -88l-106 24c9 84 85 159 205 159c150 0 207 -85 207 -182v-242c0 -44 5 -73 6 -78h-108c-1 3 -5 23 -5 62c-23 -37 -71 -77 -150 -77c-102 0 -165 70 -165 147zM232 76
c65 0 121 31 121 126v22l-127 -19c-36 -6 -65 -26 -65 -66c0 -33 25 -63 71 -63zM373 648c0 -63 -53 -110 -114 -110c-60 0 -113 47 -113 110c0 64 53 111 113 111c61 0 114 -47 114 -111zM303 648c0 26 -19 45 -45 45c-24 0 -43 -19 -43 -45c0 -25 19 -44 43 -44
c26 0 45 19 45 44z" />
    <glyph glyph-name="ae" unicode="&#xe6;" horiz-adv-x="872" 
d="M731 171l98 -32c-26 -85 -109 -154 -222 -154c-78 0 -150 34 -195 95c-31 -47 -88 -95 -188 -95c-116 0 -179 70 -179 147c0 87 64 135 147 147l132 19c30 4 37 20 37 35c0 40 -32 75 -97 75c-63 0 -102 -40 -107 -86l-102 21c8 87 98 159 210 159c81 0 136 -29 168 -71
c43 45 103 71 165 71c150 0 236 -99 236 -253c0 -11 -1 -28 -2 -37h-358c3 -75 62 -127 134 -127c70 0 106 37 123 86zM236 76c59 0 125 31 125 125v23l-135 -19c-38 -5 -65 -28 -65 -68c0 -31 26 -61 75 -61zM477 297h241c-2 57 -41 108 -121 108c-74 0 -116 -56 -120 -108
z" />
    <glyph glyph-name="ccedilla" unicode="&#xe7;" horiz-adv-x="541" 
d="M255 -106l-35 43l33 51c-124 16 -216 121 -216 256c0 150 109 258 249 258c131 0 203 -82 223 -160l-104 -38c-11 43 -44 91 -118 91c-71 0 -134 -53 -134 -151s63 -153 136 -153c76 0 111 53 122 90l102 -37c-21 -68 -80 -141 -183 -156l-23 -36c57 -1 97 -34 97 -84
c0 -47 -35 -92 -123 -92c-53 0 -96 24 -115 48l41 50c13 -13 38 -35 73 -35c24 0 44 9 44 30c0 16 -15 30 -41 30c-9 0 -20 -2 -28 -5z" />
    <glyph glyph-name="egrave" unicode="&#xe8;" horiz-adv-x="548" 
d="M156 297h239c-2 57 -40 108 -120 108c-73 0 -115 -56 -119 -108zM408 170l98 -31c-26 -85 -103 -154 -220 -154c-132 0 -249 96 -249 261c0 154 114 256 237 256c150 0 238 -99 238 -253c0 -19 -2 -35 -3 -37h-356c3 -74 61 -127 133 -127c70 0 106 37 122 85zM244 548
l-132 148h139l88 -148h-95z" />
    <glyph glyph-name="eacute" unicode="&#xe9;" horiz-adv-x="548" 
d="M448 696l-131 -148h-95l89 148h137zM156 297h239c-2 57 -40 108 -120 108c-73 0 -115 -56 -119 -108zM408 170l98 -31c-26 -85 -103 -154 -220 -154c-132 0 -249 96 -249 261c0 154 114 256 237 256c150 0 238 -99 238 -253c0 -19 -2 -35 -3 -37h-356
c3 -74 61 -127 133 -127c70 0 106 37 122 85z" />
    <glyph glyph-name="ecircumflex" unicode="&#xea;" horiz-adv-x="548" 
d="M210 549h-97l107 143h121l108 -143h-99l-70 77zM156 297h239c-2 57 -40 108 -120 108c-73 0 -115 -56 -119 -108zM408 170l98 -31c-26 -85 -103 -154 -220 -154c-132 0 -249 96 -249 261c0 154 114 256 237 256c150 0 238 -99 238 -253c0 -19 -2 -35 -3 -37h-356
c3 -74 61 -127 133 -127c70 0 106 37 122 85z" />
    <glyph glyph-name="edieresis" unicode="&#xeb;" horiz-adv-x="548" 
d="M115 625c0 36 28 65 64 65c37 0 66 -29 66 -65c0 -37 -29 -65 -66 -65c-36 0 -64 28 -64 65zM315 625c0 36 28 65 64 65s65 -29 65 -65c0 -37 -29 -65 -65 -65s-64 28 -64 65zM156 297h239c-2 57 -40 108 -120 108c-73 0 -115 -56 -119 -108zM408 170l98 -31
c-26 -85 -103 -154 -220 -154c-132 0 -249 96 -249 261c0 154 114 256 237 256c150 0 238 -99 238 -253c0 -19 -2 -35 -3 -37h-356c3 -74 61 -127 133 -127c70 0 106 37 122 85z" />
    <glyph glyph-name="igrave" unicode="&#xec;" horiz-adv-x="265" 
d="M190 0h-115v487h115v-487zM93 548l-132 148h139l88 -148h-95z" />
    <glyph glyph-name="iacute" unicode="&#xed;" horiz-adv-x="265" 
d="M307 696l-131 -148h-95l89 148h137zM190 0h-115v487h115v-487z" />
    <glyph glyph-name="icircumflex" unicode="&#xee;" horiz-adv-x="265" 
d="M62 549h-97l107 143h121l108 -143h-99l-70 77zM190 0h-115v487h115v-487z" />
    <glyph glyph-name="idieresis" unicode="&#xef;" horiz-adv-x="265" 
d="M-10 625c0 35 26 62 61 62s62 -27 62 -62s-27 -61 -62 -61s-61 26 -61 61zM152 625c0 35 27 62 61 62c35 0 62 -27 62 -62s-27 -61 -62 -61c-34 0 -61 26 -61 61zM190 0h-115v487h115v-487z" />
    <glyph glyph-name="eth" unicode="&#xf0;" horiz-adv-x="576" 
d="M495 629l-78 -35c71 -74 123 -179 123 -324c0 -157 -89 -284 -252 -284c-145 0 -251 103 -251 242c0 151 119 235 236 235c52 0 102 -15 127 -44c-18 53 -48 95 -85 129l-135 -61l-31 72l92 42c-37 21 -77 35 -113 46l36 89c56 -14 124 -40 187 -85l112 51zM288 89
c72 0 135 49 135 140c0 92 -63 140 -135 140c-71 0 -136 -50 -136 -140s65 -140 136 -140z" />
    <glyph glyph-name="ntilde" unicode="&#xf1;" horiz-adv-x="574" 
d="M191 281v-281h-116v487h113v-65c32 56 90 79 144 79c119 0 176 -86 176 -193v-308h-116v288c0 60 -27 108 -100 108c-66 0 -101 -51 -101 -115zM133 556l-1 18c0 78 45 115 103 115c29 0 50 -10 70 -22l10 -6c15 -9 28 -17 43 -17c20 0 31 13 31 44h76v-17
c0 -78 -44 -117 -102 -117c-29 0 -51 11 -71 23l-10 6c-15 9 -28 16 -43 16c-20 0 -30 -12 -30 -43h-76z" />
    <glyph glyph-name="ograve" unicode="&#xf2;" horiz-adv-x="579" 
d="M289 89c72 0 136 53 136 155c0 101 -64 153 -136 153c-71 0 -136 -52 -136 -153s65 -155 136 -155zM289 502c146 0 253 -109 253 -258c0 -150 -107 -259 -253 -259c-145 0 -252 109 -252 259c0 149 107 258 252 258zM247 548l-132 148h139l88 -148h-95z" />
    <glyph glyph-name="oacute" unicode="&#xf3;" horiz-adv-x="579" 
d="M458 696l-131 -148h-95l89 148h137zM289 89c72 0 136 53 136 155c0 101 -64 153 -136 153c-71 0 -136 -52 -136 -153s65 -155 136 -155zM289 502c146 0 253 -109 253 -258c0 -150 -107 -259 -253 -259c-145 0 -252 109 -252 259c0 149 107 258 252 258z" />
    <glyph glyph-name="ocircumflex" unicode="&#xf4;" horiz-adv-x="579" 
d="M220 549h-97l107 143h121l108 -143h-99l-70 77zM289 89c72 0 136 53 136 155c0 101 -64 153 -136 153c-71 0 -136 -52 -136 -153s65 -155 136 -155zM289 502c146 0 253 -109 253 -258c0 -150 -107 -259 -253 -259c-145 0 -252 109 -252 259c0 149 107 258 252 258z" />
    <glyph glyph-name="otilde" unicode="&#xf5;" horiz-adv-x="579" 
d="M289 89c72 0 136 53 136 155c0 101 -64 153 -136 153c-71 0 -136 -52 -136 -153s65 -155 136 -155zM289 502c146 0 253 -109 253 -258c0 -150 -107 -259 -253 -259c-145 0 -252 109 -252 259c0 149 107 258 252 258zM126 556l-1 18c0 78 45 115 103 115
c29 0 50 -10 70 -22l10 -6c15 -9 28 -17 43 -17c20 0 31 13 31 44h76v-17c0 -78 -44 -117 -102 -117c-29 0 -51 11 -71 23l-10 6c-15 9 -28 16 -43 16c-20 0 -30 -12 -30 -43h-76z" />
    <glyph glyph-name="odieresis" unicode="&#xf6;" horiz-adv-x="579" 
d="M124 625c0 36 28 65 64 65c37 0 66 -29 66 -65c0 -37 -29 -65 -66 -65c-36 0 -64 28 -64 65zM324 625c0 36 28 65 64 65s65 -29 65 -65c0 -37 -29 -65 -65 -65s-64 28 -64 65zM289 89c72 0 136 53 136 155c0 101 -64 153 -136 153c-71 0 -136 -52 -136 -153
s65 -155 136 -155zM289 502c146 0 253 -109 253 -258c0 -150 -107 -259 -253 -259c-145 0 -252 109 -252 259c0 149 107 258 252 258z" />
    <glyph glyph-name="divide" unicode="&#xf7;" horiz-adv-x="578" 
d="M215 111c0 39 33 71 72 71c40 0 72 -32 72 -71s-32 -72 -72 -72c-39 0 -72 33 -72 72zM215 472c0 39 33 72 72 72c40 0 72 -33 72 -72s-32 -72 -72 -72c-39 0 -72 33 -72 72zM52 242v99h474v-99h-474z" />
    <glyph glyph-name="oslash" unicode="&#xf8;" horiz-adv-x="579" 
d="M289 502c48 0 92 -12 129 -33l52 65l62 -51l-52 -65c39 -45 62 -106 62 -174c0 -150 -107 -259 -253 -259c-50 0 -91 12 -126 32l-50 -63l-63 51l50 63c-40 45 -63 106 -63 176c0 149 107 258 252 258zM153 244c0 -34 7 -62 19 -85l178 224c-19 9 -40 14 -61 14
c-71 0 -136 -52 -136 -153zM289 89c72 0 136 53 136 155c0 32 -7 60 -18 82l-177 -224c18 -9 38 -13 59 -13z" />
    <glyph glyph-name="ugrave" unicode="&#xf9;" horiz-adv-x="577" 
d="M392 54c-24 -44 -81 -68 -138 -68c-116 0 -184 86 -184 194v307h116v-286c0 -60 28 -111 98 -111c67 0 102 45 102 109v288h116v-398c0 -40 3 -71 5 -89h-111c-2 11 -4 34 -4 54zM257 548l-132 148h139l88 -148h-95z" />
    <glyph glyph-name="uacute" unicode="&#xfa;" horiz-adv-x="577" 
d="M435 696l-131 -148h-95l89 148h137zM392 54c-24 -44 -81 -68 -138 -68c-116 0 -184 86 -184 194v307h116v-286c0 -60 28 -111 98 -111c67 0 102 45 102 109v288h116v-398c0 -40 3 -71 5 -89h-111c-2 11 -4 34 -4 54z" />
    <glyph glyph-name="ucircumflex" unicode="&#xfb;" horiz-adv-x="577" 
d="M216 549h-97l107 143h121l108 -143h-99l-70 77zM392 54c-24 -44 -81 -68 -138 -68c-116 0 -184 86 -184 194v307h116v-286c0 -60 28 -111 98 -111c67 0 102 45 102 109v288h116v-398c0 -40 3 -71 5 -89h-111c-2 11 -4 34 -4 54z" />
    <glyph glyph-name="udieresis" unicode="&#xfc;" horiz-adv-x="577" 
d="M122 625c0 36 28 65 64 65c37 0 66 -29 66 -65c0 -37 -29 -65 -66 -65c-36 0 -64 28 -64 65zM322 625c0 36 28 65 64 65s65 -29 65 -65c0 -37 -29 -65 -65 -65s-64 28 -64 65zM392 54c-24 -44 -81 -68 -138 -68c-116 0 -184 86 -184 194v307h116v-286
c0 -60 28 -111 98 -111c67 0 102 45 102 109v288h116v-398c0 -40 3 -71 5 -89h-111c-2 11 -4 34 -4 54z" />
    <glyph glyph-name="yacute" unicode="&#xfd;" horiz-adv-x="543" 
d="M223 -197h-124l117 255l-208 429h131l140 -308l131 308h123zM431 696l-131 -148h-95l89 148h137z" />
    <glyph glyph-name="thorn" unicode="&#xfe;" horiz-adv-x="604" 
d="M190 -190h-115v914h116v-297c26 39 80 71 151 71c144 0 225 -110 225 -254c0 -146 -89 -256 -229 -256c-70 0 -123 30 -148 67v-245zM451 244c0 91 -53 151 -131 151c-76 0 -131 -60 -131 -151c0 -93 55 -153 131 -153c77 0 131 60 131 153z" />
    <glyph glyph-name="ydieresis" unicode="&#xff;" horiz-adv-x="543" 
d="M223 -197h-124l117 255l-208 429h131l140 -308l131 308h123zM108 625c0 36 28 65 64 65c37 0 66 -29 66 -65c0 -37 -29 -65 -66 -65c-36 0 -64 28 -64 65zM308 625c0 36 28 65 64 65s65 -29 65 -65c0 -37 -29 -65 -65 -65s-64 28 -64 65z" />
    <glyph glyph-name="dotlessi" unicode="&#x131;" horiz-adv-x="265" 
d="M190 0h-115v487h115v-487z" />
    <glyph glyph-name="Lslash" unicode="&#x141;" horiz-adv-x="572" 
d="M547 0h-445v273l-94 -42v100l94 42v336h120v-282l159 71v-100l-159 -71v-213h325v-114z" />
    <glyph glyph-name="lslash" unicode="&#x142;" horiz-adv-x="309" 
d="M211 0h-116v264l-87 -39v101l87 39v359h116v-307l90 40v-100l-90 -41v-316z" />
    <glyph glyph-name="OE" unicode="&#x152;" horiz-adv-x="1136" 
d="M1078 0h-438v81c-60 -62 -144 -96 -238 -96c-186 0 -360 137 -360 370c0 232 174 369 360 369c94 0 178 -34 238 -97v82h437v-112h-317v-188h288v-109h-288v-188h318v-112zM165 355c0 -171 118 -256 237 -256c120 0 238 85 238 256s-118 256 -238 256
c-119 0 -237 -85 -237 -256z" />
    <glyph glyph-name="oe" unicode="&#x153;" horiz-adv-x="937" 
d="M289 502c80 0 148 -32 194 -87c43 53 110 87 180 87c150 0 238 -99 238 -253c0 -19 -2 -35 -3 -37h-356c3 -74 61 -127 133 -127c70 0 106 37 122 85l98 -31c-26 -85 -103 -154 -220 -154c-75 0 -145 31 -192 88c-45 -55 -114 -88 -194 -88c-145 0 -252 109 -252 259
c0 149 107 258 252 258zM289 89c72 0 136 53 136 155c0 101 -64 153 -136 153c-71 0 -136 -52 -136 -153s65 -155 136 -155zM545 297h239c-2 57 -40 108 -120 108c-73 0 -115 -56 -119 -108z" />
    <glyph glyph-name="Scaron" unicode="&#x160;" horiz-adv-x="599" 
d="M127 883h109l72 -65l75 65h108l-119 -124h-129zM551 543l-108 -34c-7 44 -44 109 -139 109c-72 0 -122 -48 -122 -102c0 -45 28 -79 83 -91l102 -21c125 -25 192 -104 192 -204c0 -110 -89 -215 -251 -215c-180 0 -263 116 -274 218l112 32c7 -74 60 -142 162 -142
c85 0 129 43 129 98c0 46 -34 83 -95 96l-100 21c-108 22 -180 93 -180 199c0 119 109 217 241 217c167 0 232 -102 248 -181z" />
    <glyph glyph-name="scaron" unicode="&#x161;" horiz-adv-x="457" 
d="M61 694h98l70 -77l70 77h98l-106 -145h-124zM32 132l101 28c4 -44 37 -83 99 -83c48 0 73 26 73 56c0 26 -18 46 -57 54l-72 16c-86 19 -131 75 -131 142c0 85 78 157 179 157c136 0 180 -88 188 -136l-98 -28c-4 28 -25 73 -90 73c-41 0 -70 -26 -70 -56
c0 -26 19 -45 49 -51l74 -15c92 -20 140 -76 140 -148c0 -74 -60 -156 -184 -156c-141 0 -195 92 -201 147z" />
    <glyph glyph-name="Ydieresis" unicode="&#x178;" horiz-adv-x="638" 
d="M135 821c0 37 28 67 66 67c37 0 66 -30 66 -67s-29 -66 -66 -66c-38 0 -66 29 -66 66zM374 821c0 37 29 67 66 67s67 -30 67 -67s-30 -66 -67 -66s-66 29 -66 66zM258 300l-248 409h142l170 -297l171 297h135l-250 -409v-300h-120v300z" />
    <glyph glyph-name="Zcaron" unicode="&#x17d;" horiz-adv-x="636" 
d="M143 883h109l72 -65l75 65h108l-119 -124h-129zM595 0h-553v118l393 478h-382v113h537v-114l-398 -481h403v-114z" />
    <glyph glyph-name="zcaron" unicode="&#x17e;" horiz-adv-x="474" 
d="M73 694h98l70 -77l70 77h98l-106 -145h-124zM436 0h-398v101l247 284h-242v102h388v-98l-250 -287h255v-102z" />
    <glyph glyph-name="florin" unicode="&#x192;" horiz-adv-x="498" 
d="M120 24l73 364h-103v99h123l21 101c22 107 100 152 177 152c43 0 59 -5 82 -12v-101c-16 5 -35 8 -57 8c-31 0 -75 -10 -90 -84l-13 -64h122v-99h-142l-81 -401c-21 -107 -100 -152 -177 -152c-44 0 -61 5 -85 12v101c16 -4 36 -7 61 -7c31 0 75 10 89 83z" />
    <glyph glyph-name="circumflex" unicode="&#x2c6;" horiz-adv-x="396" 
d="M127 549h-97l107 143h121l108 -143h-99l-70 77z" />
    <glyph glyph-name="caron" unicode="&#x2c7;" horiz-adv-x="396" 
d="M30 694h98l70 -77l70 77h98l-106 -145h-124z" />
    <glyph glyph-name="uni02C9" unicode="&#x2c9;" horiz-adv-x="338" 
d="M308 577h-278v90h278v-90z" />
    <glyph glyph-name="breve" unicode="&#x2d8;" horiz-adv-x="369" 
d="M184 547c-100 0 -152 72 -154 147h82c2 -29 22 -61 72 -61c51 0 71 33 73 61h82c-2 -75 -53 -147 -155 -147z" />
    <glyph glyph-name="dotaccent" unicode="&#x2d9;" horiz-adv-x="184" 
d="M20 622c0 40 32 72 72 72s72 -32 72 -72c0 -39 -32 -71 -72 -71s-72 32 -72 71z" />
    <glyph glyph-name="ring" unicode="&#x2da;" horiz-adv-x="287" 
d="M257 645c0 -63 -53 -110 -114 -110c-60 0 -113 47 -113 110c0 64 53 111 113 111c61 0 114 -47 114 -111zM187 645c0 26 -19 45 -45 45c-24 0 -43 -19 -43 -45c0 -25 19 -44 43 -44c26 0 45 19 45 44z" />
    <glyph glyph-name="ogonek" unicode="&#x2db;" horiz-adv-x="228" 
d="M147 -220c-67 0 -119 40 -119 104c0 75 57 112 102 132l68 -16c-38 -18 -82 -50 -82 -95c0 -32 24 -46 51 -46c11 0 21 1 31 3v-74c-13 -5 -27 -8 -51 -8z" />
    <glyph glyph-name="tilde" unicode="&#x2dc;" horiz-adv-x="385" 
d="M27 556l-1 18c0 78 45 115 103 115c29 0 50 -10 70 -22l10 -6c15 -9 28 -17 43 -17c20 0 31 13 31 44h76v-17c0 -78 -44 -117 -102 -117c-29 0 -51 11 -71 23l-10 6c-15 9 -28 16 -43 16c-20 0 -30 -12 -30 -43h-76z" />
    <glyph glyph-name="hungarumlaut" unicode="&#x2dd;" horiz-adv-x="383" 
d="M199 696l-94 -148h-76l52 148h118zM354 696l-107 -148h-76l64 148h119z" />
    <glyph glyph-name="uni0394" unicode="&#x394;" horiz-adv-x="678" 
d="M0 0l274 709h129l275 -709h-678zM338 576l-171 -465h343z" />
    <glyph glyph-name="uni03A9" unicode="&#x3a9;" horiz-adv-x="788" 
d="M394 614c-112 0 -226 -79 -226 -223c0 -127 95 -208 187 -227v-164h-304v109h189c-100 39 -195 142 -195 287c0 204 166 328 349 328s349 -124 349 -328c0 -145 -95 -248 -195 -287h189v-109h-304v164c92 19 187 100 187 227c0 144 -114 223 -226 223z" />
    <glyph glyph-name="uni03BC" unicode="&#x3bc;" horiz-adv-x="584" 
d="M397 54c-24 -44 -81 -68 -138 -68c-25 0 -48 4 -68 12v-188h-116v677h116v-286c0 -60 28 -111 98 -111c67 0 102 45 102 109v288h116v-398c0 -31 2 -62 5 -89h-111c-2 11 -4 34 -4 54z" />
    <glyph glyph-name="pi" unicode="&#x3c0;" horiz-adv-x="628" 
d="M582 5c-8 -3 -29 -13 -65 -13c-90 0 -132 59 -132 133v262h-147v-387h-115v387h-83v100h540v-100h-80v-248c0 -36 24 -48 51 -48c14 0 22 1 31 4v-90z" />
    <glyph glyph-name="uni2007" unicode="&#x2007;" horiz-adv-x="619" 
 />
    <glyph glyph-name="uni2008" unicode="&#x2008;" horiz-adv-x="296" 
 />
    <glyph glyph-name="uni200B" unicode="&#x200b;" horiz-adv-x="0" 
 />
    <glyph glyph-name="endash" unicode="&#x2013;" horiz-adv-x="641" 
d="M577 242h-514v101h514v-101z" />
    <glyph glyph-name="emdash" unicode="&#x2014;" horiz-adv-x="1092" 
d="M1019 242h-946v101h946v-101z" />
    <glyph glyph-name="quoteleft" unicode="&#x2018;" horiz-adv-x="226" 
d="M190 509c0 -36 -31 -66 -73 -66c-47 0 -80 36 -80 91c0 125 84 175 144 181v-55c-41 -8 -77 -46 -79 -89c2 1 11 5 21 5c39 0 67 -27 67 -67z" />
    <glyph glyph-name="quoteright" unicode="&#x2019;" horiz-adv-x="230" 
d="M37 649c0 36 31 68 74 68c48 0 83 -38 83 -93c0 -130 -87 -180 -148 -186v55c41 8 78 47 80 92c-2 -1 -11 -5 -21 -5c-40 0 -68 28 -68 69z" />
    <glyph glyph-name="quotesinglbase" unicode="&#x201a;" horiz-adv-x="230" 
d="M37 65c0 37 31 68 74 68c48 0 83 -37 83 -93c0 -129 -87 -179 -148 -186v56c41 7 78 46 80 92c-2 -2 -11 -5 -21 -5c-40 0 -68 27 -68 68z" />
    <glyph glyph-name="quotedblleft" unicode="&#x201c;" horiz-adv-x="412" 
d="M375 512c0 -36 -31 -66 -73 -66c-46 0 -80 36 -80 91c0 125 85 175 144 181v-55c-40 -7 -76 -46 -78 -89c2 1 10 5 20 5c40 0 67 -27 67 -67zM190 512c0 -36 -31 -66 -73 -66c-47 0 -80 36 -80 91c0 125 84 175 144 181v-55c-41 -7 -77 -46 -79 -89c2 1 11 5 21 5
c39 0 67 -27 67 -67z" />
    <glyph glyph-name="quotedblright" unicode="&#x201d;" horiz-adv-x="411" 
d="M37 648c0 37 30 67 72 67c47 0 81 -36 81 -91c0 -126 -85 -174 -145 -181v54c41 8 77 45 79 90c-2 -2 -11 -5 -21 -5c-39 0 -66 26 -66 66zM221 648c0 37 31 67 73 67c46 0 80 -36 80 -91c0 -126 -85 -174 -144 -181v54c41 8 77 45 78 90c-2 -2 -10 -5 -20 -5
c-39 0 -67 26 -67 66z" />
    <glyph glyph-name="quotedblbase" unicode="&#x201e;" horiz-adv-x="411" 
d="M37 63c0 37 30 67 72 67c47 0 81 -36 81 -91c0 -126 -85 -174 -145 -181v54c41 8 77 45 79 90c-2 -2 -11 -5 -21 -5c-39 0 -66 26 -66 66zM221 63c0 37 31 67 73 67c46 0 80 -36 80 -91c0 -126 -85 -174 -144 -181v54c41 8 77 45 78 90c-2 -2 -10 -5 -20 -5
c-39 0 -67 26 -67 66z" />
    <glyph glyph-name="dagger" unicode="&#x2020;" horiz-adv-x="401" 
d="M250 162h-99v308h-124v94h124v145h99v-145h124v-94h-124v-308z" />
    <glyph glyph-name="daggerdbl" unicode="&#x2021;" horiz-adv-x="441" 
d="M47 239h124v231h-124v93h124v146h99v-146h124v-93h-124v-231h124v-93h-124v-146h-99v146h-124v93z" />
    <glyph glyph-name="bullet" unicode="&#x2022;" horiz-adv-x="542" 
d="M63 294c0 116 94 209 208 209s208 -93 208 -209c0 -113 -94 -207 -208 -207s-208 94 -208 207z" />
    <glyph glyph-name="ellipsis" unicode="&#x2026;" horiz-adv-x="926" 
d="M844 65c0 -40 -32 -73 -73 -73s-74 33 -74 73c0 41 33 74 74 74s73 -33 73 -74zM536 65c0 -40 -32 -73 -73 -73s-74 33 -74 73c0 41 33 74 74 74s73 -33 73 -74zM229 65c0 -40 -33 -73 -74 -73c-40 0 -73 33 -73 73c0 41 33 74 73 74c41 0 74 -33 74 -74z" />
    <glyph glyph-name="perthousand" unicode="&#x2030;" horiz-adv-x="1070" 
d="M141 497c0 -44 31 -74 71 -74c41 0 71 30 71 74c0 42 -30 73 -71 73c-40 0 -71 -31 -71 -73zM49 497c0 90 75 160 163 160c89 0 164 -70 164 -160c0 -92 -75 -161 -164 -161s-163 70 -163 161zM559 152c0 -44 32 -74 72 -74c41 0 71 30 71 74c0 42 -30 73 -71 73
c-40 0 -72 -31 -72 -73zM244 0h-105l462 648h104zM792 152c0 -44 31 -74 71 -74c41 0 72 30 72 74c0 42 -31 73 -72 73c-40 0 -71 -31 -71 -73zM467 152c0 90 75 160 164 160c49 0 89 -21 116 -55c27 34 67 55 116 55c89 0 165 -70 165 -160c0 -92 -76 -161 -165 -161
c-49 0 -89 21 -116 55c-27 -34 -68 -55 -117 -55c-88 0 -163 70 -163 161z" />
    <glyph glyph-name="guilsinglleft" unicode="&#x2039;" horiz-adv-x="293" 
d="M274 100h-111l-135 193l136 194h111l-134 -195z" />
    <glyph glyph-name="guilsinglright" unicode="&#x203a;" horiz-adv-x="293" 
d="M130 100h-111l133 192l-134 195h112l135 -194z" />
    <glyph glyph-name="uni2042" unicode="&#x2042;" horiz-adv-x="836" 
d="M458 708v-114l106 35l25 -76l-107 -35l69 -91l-64 -47l-71 93l-66 -92l-66 47l68 90l-107 35l25 76l105 -36v115h83zM248 317v-114l106 35l25 -76l-107 -35l69 -91l-64 -47l-71 93l-66 -92l-66 47l68 90l-107 35l25 76l105 -36v115h83zM672 317v-114l106 35l25 -76
l-107 -35l69 -91l-64 -47l-71 93l-66 -92l-66 47l68 90l-107 35l25 76l105 -36v115h83z" />
    <glyph glyph-name="fraction" unicode="&#x2044;" horiz-adv-x="566" 
d="M105 0h-105l462 648h104z" />
    <glyph glyph-name="uni2051" unicode="&#x2051;" horiz-adv-x="426" 
d="M254 708v-114l106 35l25 -76l-107 -35l69 -91l-64 -47l-71 93l-66 -92l-66 47l68 90l-107 35l25 76l105 -36v115h83zM254 319v-114l106 35l25 -76l-107 -35l69 -91l-64 -47l-71 93l-66 -92l-66 47l68 90l-107 35l25 76l105 -36v115h83z" />
    <glyph glyph-name="uni2070" unicode="&#x2070;" horiz-adv-x="431" 
d="M147 526c0 -52 9 -114 68 -114c60 0 68 62 68 114s-8 115 -68 115c-59 0 -68 -62 -68 -115zM55 526c0 91 37 191 160 191c125 0 161 -102 161 -191c0 -87 -35 -190 -161 -190c-125 0 -160 101 -160 190z" />
    <glyph glyph-name="uni2074" unicode="&#x2074;" horiz-adv-x="443" 
d="M55 414v88l172 207h99v-222h62v-73h-62v-71h-90v71h-181zM236 487v125l-103 -125h103z" />
    <glyph glyph-name="uni2075" unicode="&#x2075;" horiz-adv-x="404" 
d="M55 439l79 25c6 -32 33 -52 66 -52c35 0 59 19 59 53c0 38 -25 56 -60 56c-24 0 -44 -10 -58 -24l-74 24l47 188h214v-75h-158l-19 -73c17 17 45 25 72 25c76 0 126 -45 126 -119c0 -72 -53 -131 -149 -131c-77 0 -134 48 -145 103z" />
    <glyph glyph-name="uni2076" unicode="&#x2076;" horiz-adv-x="418" 
d="M347 699l-18 -68c-19 8 -41 12 -64 12c-57 0 -106 -29 -119 -92c18 22 52 37 87 37c75 0 130 -43 130 -122c0 -78 -64 -131 -152 -131c-81 0 -156 57 -156 168c0 132 89 214 204 214c32 0 64 -7 88 -18zM151 464c0 -35 30 -55 61 -55s60 20 60 55s-29 56 -60 56
s-61 -21 -61 -56z" />
    <glyph glyph-name="uni2077" unicode="&#x2077;" horiz-adv-x="413" 
d="M358 709v-77c-35 -26 -131 -109 -148 -289h-96c16 189 132 290 132 290h-191v76h303z" />
    <glyph glyph-name="uni2078" unicode="&#x2078;" horiz-adv-x="415" 
d="M208 562c32 0 50 19 50 43c0 21 -17 40 -50 40s-51 -19 -51 -40c0 -24 19 -43 51 -43zM208 408c41 0 60 20 60 46c0 24 -20 44 -60 44s-61 -20 -61 -44c0 -26 20 -46 61 -46zM208 335c-96 0 -151 46 -151 109c0 39 28 73 71 87c-39 14 -60 47 -60 81c0 61 55 105 140 105
s139 -44 139 -105c0 -34 -21 -67 -59 -81c42 -14 71 -48 71 -85c0 -64 -54 -111 -151 -111z" />
    <glyph glyph-name="uni2079" unicode="&#x2079;" horiz-adv-x="417" 
d="M74 352l17 70c19 -7 40 -13 62 -13c59 0 111 26 121 92c-18 -22 -53 -37 -88 -37c-71 0 -131 44 -131 122c0 77 63 131 152 131c80 0 155 -55 155 -163c0 -141 -83 -219 -199 -219c-32 0 -65 6 -89 17zM265 587c0 35 -28 56 -61 56c-32 0 -60 -21 -60 -56s28 -56 60 -56
c33 0 61 21 61 56z" />
    <glyph glyph-name="uni2080" unicode="&#x2080;" horiz-adv-x="431" 
d="M147 110c0 -52 9 -114 68 -114c60 0 68 62 68 114s-8 115 -68 115c-59 0 -68 -62 -68 -115zM55 110c0 91 37 191 160 191c125 0 161 -102 161 -191c0 -87 -35 -190 -161 -190c-125 0 -160 101 -160 190z" />
    <glyph glyph-name="uni2081" unicode="&#x2081;" horiz-adv-x="305" 
d="M223 -90h-91v233h-89v60c57 1 91 37 98 73h82v-366z" />
    <glyph glyph-name="uni2082" unicode="&#x2082;" horiz-adv-x="392" 
d="M146 134l-84 -1c-2 10 -3 21 -3 30c0 65 49 121 138 121c87 0 137 -55 137 -119c0 -47 -28 -83 -75 -111l-71 -43c-10 -7 -18 -16 -20 -25h169v-76h-281v12c0 63 24 114 87 152l60 36c27 16 41 35 41 56c0 22 -16 44 -49 44c-32 0 -52 -21 -52 -52c0 -5 1 -16 3 -24z" />
    <glyph glyph-name="uni2083" unicode="&#x2083;" horiz-adv-x="412" 
d="M55 12l80 24c5 -33 32 -58 69 -58s61 22 61 49c0 37 -30 51 -61 51c-12 0 -21 -2 -31 -6l-32 61l91 69h-164v75h279v-72l-94 -69c59 -6 103 -45 103 -110c0 -67 -58 -123 -151 -123c-89 0 -140 54 -150 109z" />
    <glyph glyph-name="uni2084" unicode="&#x2084;" horiz-adv-x="443" 
d="M55 -19v88l172 207h99v-222h62v-73h-62v-71h-90v71h-181zM236 54v125l-103 -125h103z" />
    <glyph glyph-name="uni2085" unicode="&#x2085;" horiz-adv-x="404" 
d="M55 6l79 25c6 -32 33 -52 66 -52c35 0 59 19 59 53c0 38 -25 56 -60 56c-24 0 -44 -10 -58 -24l-74 24l47 188h214v-75h-158l-19 -73c17 17 45 25 72 25c76 0 126 -45 126 -119c0 -72 -53 -131 -149 -131c-77 0 -134 48 -145 103z" />
    <glyph glyph-name="uni2086" unicode="&#x2086;" horiz-adv-x="418" 
d="M347 267l-18 -68c-19 8 -41 12 -64 12c-57 0 -106 -29 -119 -92c18 22 52 37 87 37c75 0 130 -43 130 -122c0 -78 -64 -131 -152 -131c-81 0 -156 57 -156 168c0 132 89 214 204 214c32 0 64 -7 88 -18zM151 32c0 -35 30 -55 61 -55s60 20 60 55s-29 56 -60 56
s-61 -21 -61 -56z" />
    <glyph glyph-name="uni2087" unicode="&#x2087;" horiz-adv-x="413" 
d="M358 276v-77c-35 -26 -131 -109 -148 -289h-96c16 189 132 290 132 290h-191v76h303z" />
    <glyph glyph-name="uni2088" unicode="&#x2088;" horiz-adv-x="415" 
d="M208 129c32 0 50 19 50 43c0 21 -17 40 -50 40s-51 -19 -51 -40c0 -24 19 -43 51 -43zM208 -25c41 0 60 20 60 46c0 24 -20 44 -60 44s-61 -20 -61 -44c0 -26 20 -46 61 -46zM208 -98c-96 0 -151 46 -151 109c0 39 28 73 71 87c-39 14 -60 47 -60 81c0 61 55 105 140 105
s139 -44 139 -105c0 -34 -21 -67 -59 -81c42 -14 71 -48 71 -85c0 -64 -54 -111 -151 -111z" />
    <glyph glyph-name="uni2089" unicode="&#x2089;" horiz-adv-x="417" 
d="M74 -80l17 70c19 -7 40 -13 62 -13c59 0 111 26 121 92c-18 -22 -53 -37 -88 -37c-71 0 -131 44 -131 122c0 77 63 131 152 131c80 0 155 -55 155 -163c0 -141 -83 -219 -199 -219c-32 0 -65 6 -89 17zM265 155c0 35 -28 56 -61 56c-32 0 -60 -21 -60 -56s28 -56 60 -56
c33 0 61 21 61 56z" />
    <glyph glyph-name="Euro" unicode="&#x20ac;" horiz-adv-x="683" 
d="M63 287h77c-1 9 -2 23 -2 36c0 16 1 26 2 36h-77v87h94c48 140 178 217 312 217c70 0 126 -15 171 -46l-46 -93c-33 24 -76 35 -125 35c-77 0 -150 -36 -187 -113h275l-42 -87h-256c-1 -8 -2 -19 -2 -35c0 -18 1 -30 2 -37h226l-41 -88h-161c37 -73 107 -108 185 -108
c56 0 105 16 139 48l56 -86c-47 -40 -115 -68 -195 -68c-135 0 -262 76 -310 214h-95v88z" />
    <glyph glyph-name="uni2113" unicode="&#x2113;" horiz-adv-x="419" 
d="M32 266c7 1 34 8 68 24v211c0 101 60 163 144 163c89 0 143 -57 143 -156c0 -100 -65 -209 -177 -280v-52c0 -56 34 -78 68 -78c58 0 85 23 90 27v-100c-3 -4 -28 -30 -100 -30c-110 0 -168 67 -168 161v22c-22 -7 -44 -12 -68 -16v104zM278 511c0 35 -10 52 -33 52
c-18 0 -35 -14 -35 -59v-145c38 37 68 86 68 152z" />
    <glyph glyph-name="trademark" unicode="&#x2122;" horiz-adv-x="868" 
d="M332 632h-107v-288h-86v288h-107v77h300v-77zM808 344h-82v227l-95 -227h-64l-93 224v-224h-84v365h115l97 -232l95 232h111v-365z" />
    <glyph glyph-name="Omega" unicode="&#x2126;" horiz-adv-x="788" 
d="M394 614c-112 0 -226 -79 -226 -223c0 -127 95 -208 187 -227v-164h-304v109h189c-100 39 -195 142 -195 287c0 204 166 328 349 328s349 -124 349 -328c0 -145 -95 -248 -195 -287h189v-109h-304v164c92 19 187 100 187 227c0 144 -114 223 -226 223z" />
    <glyph glyph-name="uni2160" unicode="&#x2160;" horiz-adv-x="501" 
d="M451 648v-104h-141v-440h141v-104h-401v104h142v440h-142v104h401z" />
    <glyph glyph-name="uni2161" unicode="&#x2161;" horiz-adv-x="779" 
d="M729 104v-104h-679v104h138v440h-138v104h679v-104h-138v-440h138zM472 104v440h-165v-440h165z" />
    <glyph glyph-name="uni2162" unicode="&#x2162;" horiz-adv-x="1053" 
d="M1003 104v-104h-953v104h138v440h-138v104h953v-104h-138v-440h138zM746 104v440h-160v-440h160zM307 544v-440h160v440h-160z" />
    <glyph glyph-name="uni2163" unicode="&#x2163;" horiz-adv-x="1032" 
d="M982 104v-104h-932v104h131v440h-131v104h931v-104h-112l-146 -440h259zM299 544v-440h226l-146 440h-80zM626 155l122 389h-244z" />
    <glyph glyph-name="uni2164" unicode="&#x2164;" horiz-adv-x="806" 
d="M756 648v-104h-109l-146 -440h252v-104h-700v104h250l-147 440h-106v104h706zM404 155l122 389h-244z" />
    <glyph glyph-name="uni2165" unicode="&#x2165;" horiz-adv-x="1030" 
d="M980 104v-104h-930v104h256l-147 440h-109v104h930v-104h-131v-440h131zM652 544l-148 -440h227v440h-79zM407 155l123 389h-246z" />
    <glyph glyph-name="uni2166" unicode="&#x2166;" horiz-adv-x="1313" 
d="M1263 104v-104h-1213v104h255l-146 440h-109v104h1213v-104h-138v-440h138zM1007 104v440h-158v-440h158zM651 544l-148 -440h227v440h-79zM406 155l123 389h-245z" />
    <glyph glyph-name="uni2167" unicode="&#x2167;" horiz-adv-x="1570" 
d="M1520 104v-104h-1470v104h253l-143 440h-110v104h1470v-104h-134v-440h134zM644 544l-144 -440h226v440h-82zM1115 544v-440h153v440h-153zM845 544v-440h152v440h-152zM404 155l119 389h-239z" />
    <glyph glyph-name="uni2168" unicode="&#x2168;" horiz-adv-x="1004" 
d="M954 104v-104h-904v104h131v440h-131v104h903v-104h-104l-161 -226l155 -214h111zM544 319l-162 225h-83v-440h87zM521 544l95 -138l96 138h-191zM614 233l-91 -129h181z" />
    <glyph glyph-name="uni2169" unicode="&#x2169;" horiz-adv-x="774" 
d="M724 648v-104h-105l-161 -226l155 -214h111v-104h-674v104h107l158 215l-162 225h-103v104h674zM292 544l95 -138l96 138h-191zM385 233l-92 -129h182z" />
    <glyph glyph-name="uni216C" unicode="&#x216c;" horiz-adv-x="656" 
d="M606 287v-287h-556v104h123v440h-123v104h375v-104h-133v-440h199v183h115z" />
    <glyph glyph-name="uni216D" unicode="&#x216d;" horiz-adv-x="730" 
d="M680 239v-239h-117v64c-39 -46 -97 -79 -187 -79c-172 0 -326 129 -326 339c0 212 156 340 325 340c88 0 146 -31 184 -75v61h117v-234h-117c-9 74 -65 142 -181 142c-109 0 -211 -74 -211 -234c0 -154 99 -231 212 -231c126 0 177 83 184 146h117z" />
    <glyph glyph-name="uni216E" unicode="&#x216e;" horiz-adv-x="739" 
d="M381 648c175 -2 308 -120 308 -325c0 -207 -137 -323 -315 -323h-324v104h128v440h-128v104h331zM297 104h76c108 0 196 75 196 219c0 147 -90 221 -200 221h-72v-440z" />
    <glyph glyph-name="uni216F" unicode="&#x216f;" horiz-adv-x="1059" 
d="M377 104v-104h-327v104h121v440h-121v104h288l189 -469l188 469h294v-104h-124v-440h124v-104h-331v104h91v374l-197 -475h-90l-195 474v-373h90z" />
    <glyph glyph-name="arrowleft" unicode="&#x2190;" horiz-adv-x="1046" 
d="M239 86l-244 206l244 208v-157h742v-101h-742v-156z" />
    <glyph glyph-name="arrowup" unicode="&#x2191;" horiz-adv-x="469" 
d="M252 800l215 -257h-165v-690h-100v690h-167z" />
    <glyph glyph-name="arrowright" unicode="&#x2192;" horiz-adv-x="1058" 
d="M1019 292l-274 -224v174h-716v100h716v175z" />
    <glyph glyph-name="arrowdown" unicode="&#x2193;" horiz-adv-x="465" 
d="M443 105l-224 -262l-225 262h174v686h101v-686h174z" />
    <glyph glyph-name="uni2196" unicode="&#x2196;" horiz-adv-x="875" 
d="M60 709h314l-121 -122l527 -526l-71 -71l-527 526l-122 -123v316z" />
    <glyph glyph-name="uni2197" unicode="&#x2197;" horiz-adv-x="764" 
d="M355 709h314v-316l-123 123l-526 -526l-71 71l527 526z" />
    <glyph glyph-name="uni2198" unicode="&#x2198;" horiz-adv-x="865" 
d="M770 0h-314l121 122l-527 526l71 71l526 -527l123 124v-316z" />
    <glyph glyph-name="uni2199" unicode="&#x2199;" horiz-adv-x="755" 
d="M354 0h-314v316l122 -124l527 527l71 -71l-527 -526z" />
    <glyph glyph-name="uni21A9" unicode="&#x21a9;" horiz-adv-x="848" 
d="M401 557v100h193c137 0 233 -93 233 -214c0 -118 -94 -214 -230 -214h-366v-156l-244 207l244 208v-158h362c77 0 132 47 132 113c0 71 -57 114 -135 114h-189z" />
    <glyph glyph-name="uni21B0" unicode="&#x21b0;" horiz-adv-x="791" 
d="M288 310l-245 207l245 207v-157h418v-567h-100v467h-318v-157z" />
    <glyph glyph-name="uni21B1" unicode="&#x21b1;" horiz-adv-x="736" 
d="M135 0h-100v567h452v157l244 -207l-244 -207v157h-352v-467z" />
    <glyph glyph-name="uni21B2" unicode="&#x21b2;" horiz-adv-x="766" 
d="M584 709h101v-567h-453v-157l-244 207l244 207v-157h352v467z" />
    <glyph glyph-name="uni21B3" unicode="&#x21b3;" horiz-adv-x="846" 
d="M531 399l244 -207l-244 -207v157h-453v567h101v-467h352v157z" />
    <glyph glyph-name="uni21B4" unicode="&#x21b4;" horiz-adv-x="806" 
d="M58 609v100h572v-484h157l-206 -241l-207 241h156v384h-472z" />
    <glyph glyph-name="uni21C6" unicode="&#x21c6;" horiz-adv-x="1139" 
d="M304 342l-244 207l244 208v-158h756v-101h-756v-156zM1084 166l-244 -207v157h-755v100h755v157z" />
    <glyph glyph-name="partialdiff" unicode="&#x2202;" horiz-adv-x="617" 
d="M250 617c-31 0 -86 -5 -143 -33l-40 92c63 35 135 46 191 46c124 0 314 -63 314 -374c0 -214 -93 -363 -283 -363c-127 0 -248 80 -248 240c0 146 119 231 244 231c86 0 139 -28 165 -57c-16 160 -92 218 -200 218zM308 356c-100 0 -150 -61 -150 -137
c0 -82 68 -128 136 -128c112 0 158 105 158 202c-32 41 -85 63 -144 63z" />
    <glyph glyph-name="Delta" unicode="&#x2206;" horiz-adv-x="678" 
d="M0 0l274 709h129l275 -709h-678zM338 576l-171 -465h343z" />
    <glyph glyph-name="product" unicode="&#x220f;" horiz-adv-x="686" 
d="M601 0h-118v600h-278v-600h-120v709h516v-709z" />
    <glyph glyph-name="summation" unicode="&#x2211;" horiz-adv-x="568" 
d="M40 0v107l263 248l-263 247v107h507v-111h-344l260 -243l-269 -244h353v-111h-507z" />
    <glyph glyph-name="minus" unicode="&#x2212;" horiz-adv-x="555" 
d="M503 244h-451v96h451v-96z" />
    <glyph glyph-name="uni2215" unicode="&#x2215;" horiz-adv-x="426" 
d="M426 653l-319 -658h-107l319 658h107z" />
    <glyph glyph-name="uni2219" unicode="&#x2219;" horiz-adv-x="284" 
d="M65 298c0 43 35 78 78 78c44 0 79 -35 79 -78c0 -44 -35 -77 -79 -77c-43 0 -78 33 -78 77z" />
    <glyph glyph-name="radical" unicode="&#x221a;" horiz-adv-x="683" 
d="M716 773h-126l-261 -773h-106l-190 534h120l124 -364l231 704h208v-101z" />
    <glyph glyph-name="infinity" unicode="&#x221e;" horiz-adv-x="818" 
d="M408 213c-60 -66 -114 -101 -181 -101c-106 0 -184 76 -184 178s78 179 184 179c66 0 128 -36 183 -103c58 66 116 103 181 103c107 0 183 -77 183 -179s-77 -178 -184 -178c-67 0 -126 33 -182 101zM229 369c-50 0 -83 -35 -83 -80s33 -79 83 -79c44 0 80 32 117 77
c-39 47 -72 82 -117 82zM588 210c51 0 83 34 83 79s-32 80 -83 80c-44 0 -77 -34 -117 -79c38 -46 73 -80 117 -80z" />
    <glyph glyph-name="integral" unicode="&#x222b;" horiz-adv-x="332" 
d="M109 -24v560c0 107 66 173 173 173h45v-103h-38c-39 0 -65 -24 -65 -71v-561c0 -107 -63 -174 -170 -174h-49v103h39c38 0 65 26 65 73z" />
    <glyph glyph-name="approxequal" unicode="&#x2248;" horiz-adv-x="583" 
d="M488 447l62 -52c-37 -59 -93 -92 -155 -92c-35 0 -68 9 -105 30l-47 26c-19 10 -39 15 -58 15c-32 0 -63 -15 -88 -46l-64 54c38 60 92 93 153 93c39 0 68 -10 106 -30l47 -25c26 -14 44 -18 65 -18c31 0 60 15 84 45zM488 250l62 -53c-38 -59 -92 -92 -153 -92
c-36 0 -70 9 -107 30l-47 26c-18 10 -37 14 -55 15c-34 0 -65 -14 -91 -46l-64 54c38 60 92 93 154 93c34 0 68 -10 105 -30l47 -25c21 -11 39 -18 63 -18c32 0 62 14 86 46z" />
    <glyph glyph-name="notequal" unicode="&#x2260;" horiz-adv-x="598" 
d="M537 146h-281l-67 -98h-110l67 98h-84v95h150l70 102h-220v94h285l66 95h109l-66 -95h81v-94h-145l-70 -102h215v-95z" />
    <glyph glyph-name="lessequal" unicode="&#x2264;" horiz-adv-x="544" 
d="M60 143h422v-96h-422v96zM60 311v97l422 141v-99l-292 -89l292 -91v-99z" />
    <glyph glyph-name="greaterequal" unicode="&#x2265;" horiz-adv-x="544" 
d="M62 143h422v-96h-422v96zM484 408v-97l-422 -140v98l292 90l-292 90v100z" />
    <glyph glyph-name="dotmath" unicode="&#x22c5;" horiz-adv-x="284" 
d="M65 298c0 43 35 78 78 78c44 0 79 -35 79 -78c0 -44 -35 -77 -79 -77c-43 0 -78 33 -78 77z" />
    <glyph glyph-name="uni24C5" unicode="&#x24c5;" horiz-adv-x="818" 
d="M124 355c0 -166 124 -294 284 -294c159 0 284 128 284 294c0 165 -125 293 -284 293c-160 0 -284 -128 -284 -293zM42 355c0 203 163 369 366 369s368 -166 368 -369c0 -204 -165 -370 -368 -370s-366 166 -366 370zM371 369h61c40 0 64 22 64 57s-24 58 -64 58h-61v-115
zM447 296h-76v-140h-86v401h162c78 0 137 -59 137 -131s-59 -130 -137 -130z" />
    <glyph glyph-name="filledbox" unicode="&#x25a0;" horiz-adv-x="914" 
d="M105 0v709h704v-709h-704z" />
    <glyph glyph-name="H22073" unicode="&#x25a1;" horiz-adv-x="914" 
d="M809 0h-704v709h704v-709zM205 613v-518h503v518h-503z" />
    <glyph glyph-name="triagup" unicode="&#x25b2;" horiz-adv-x="838" 
d="M420 724l418 -724h-838z" />
    <glyph glyph-name="uni25B3" unicode="&#x25b3;" horiz-adv-x="837" 
d="M420 724l417 -724h-837zM665 95l-246 430l-247 -430h493z" />
    <glyph glyph-name="lozenge" unicode="&#x25ca;" horiz-adv-x="590" 
d="M160 354l135 -231l134 231l-134 232zM32 354l205 355h116l205 -355l-205 -354h-116z" />
    <glyph glyph-name="circle" unicode="&#x25cb;" horiz-adv-x="821" 
d="M40 354c0 205 165 371 370 371s371 -166 371 -371s-166 -370 -371 -370s-370 165 -370 370zM141 354c0 -151 120 -273 269 -273c150 0 269 122 269 273s-119 273 -269 273c-149 0 -269 -122 -269 -273z" />
    <glyph glyph-name="H18533" unicode="&#x25cf;" horiz-adv-x="821" 
d="M40 354c0 205 165 371 370 371s371 -166 371 -371s-166 -370 -371 -370s-370 165 -370 370z" />
    <glyph glyph-name="uni262E" unicode="&#x262e;" horiz-adv-x="818" 
d="M776 355c0 -204 -164 -370 -368 -370c-203 0 -366 166 -366 370c0 203 163 369 366 369c204 0 368 -166 368 -369zM677 355c0 138 -95 249 -221 272v-215l192 -179c18 36 29 77 29 122zM138 355c0 -44 10 -85 28 -120l191 177v214c-126 -23 -219 -134 -219 -271zM456 82
c52 9 99 34 136 70l-136 130v-200zM221 153c36 -37 83 -62 136 -71v200z" />
    <glyph glyph-name="uni2713" unicode="&#x2713;" horiz-adv-x="954" 
d="M934 656l-626 -673l-288 321l73 68l219 -239l551 594z" />
    <glyph glyph-name="uni2715" unicode="&#x2715;" horiz-adv-x="756" 
d="M663 -5l-286 289l-285 -289l-70 71l284 289l-284 287l72 71l283 -287l282 287l71 -71l-283 -287l287 -289z" />
    <glyph glyph-name="uni2780" unicode="&#x2780;" horiz-adv-x="821" 
d="M125 355c0 -166 125 -294 285 -294c159 0 284 128 284 294c0 165 -125 293 -284 293c-160 0 -285 -128 -285 -293zM43 355c0 203 164 369 367 369s368 -166 368 -369c0 -204 -165 -370 -368 -370s-367 166 -367 370zM471 172h-91v233h-89v60c57 1 91 37 98 73h82v-366z
" />
    <glyph glyph-name="uni2781" unicode="&#x2781;" horiz-adv-x="821" 
d="M125 355c0 -166 125 -294 285 -294c159 0 284 128 284 294c0 165 -125 293 -284 293c-160 0 -285 -128 -285 -293zM43 355c0 203 164 369 367 369s368 -166 368 -369c0 -204 -165 -370 -368 -370s-367 166 -367 370zM355 404l-84 -1c-2 10 -3 21 -3 30
c0 65 49 121 138 121c87 0 137 -55 137 -119c0 -47 -28 -83 -75 -111l-71 -43c-10 -7 -18 -16 -20 -25h169v-76h-281v12c0 63 24 114 87 152l60 36c27 16 41 35 41 56c0 22 -16 44 -49 44c-32 0 -52 -21 -52 -52c0 -5 1 -16 3 -24z" />
    <glyph glyph-name="uni2782" unicode="&#x2782;" horiz-adv-x="821" 
d="M125 355c0 -166 125 -294 285 -294c159 0 284 128 284 294c0 165 -125 293 -284 293c-160 0 -285 -128 -285 -293zM43 355c0 203 164 369 367 369s368 -166 368 -369c0 -204 -165 -370 -368 -370s-367 166 -367 370zM254 271l80 24c5 -33 32 -58 69 -58s61 22 61 49
c0 37 -30 51 -61 51c-12 0 -21 -2 -31 -6l-32 61l91 69h-164v75h279v-72l-94 -69c59 -6 103 -45 103 -110c0 -67 -58 -123 -151 -123c-89 0 -140 54 -150 109z" />
    <glyph glyph-name="uni2783" unicode="&#x2783;" horiz-adv-x="821" 
d="M125 355c0 -166 125 -294 285 -294c159 0 284 128 284 294c0 165 -125 293 -284 293c-160 0 -285 -128 -285 -293zM43 355c0 203 164 369 367 369s368 -166 368 -369c0 -204 -165 -370 -368 -370s-367 166 -367 370zM233 249v88l172 207h99v-222h62v-73h-62v-71h-90v71
h-181zM414 322v125l-103 -125h103z" />
    <glyph glyph-name="uni2784" unicode="&#x2784;" horiz-adv-x="821" 
d="M125 355c0 -166 125 -294 285 -294c159 0 284 128 284 294c0 165 -125 293 -284 293c-160 0 -285 -128 -285 -293zM43 355c0 203 164 369 367 369s368 -166 368 -369c0 -204 -165 -370 -368 -370s-367 166 -367 370zM254 263l79 25c6 -32 33 -52 66 -52c35 0 59 19 59 53
c0 38 -25 56 -60 56c-24 0 -44 -10 -58 -24l-74 24l47 188h214v-75h-158l-19 -73c17 17 45 25 72 25c76 0 126 -45 126 -119c0 -72 -53 -131 -149 -131c-77 0 -134 48 -145 103z" />
    <glyph glyph-name="uni2785" unicode="&#x2785;" horiz-adv-x="821" 
d="M125 355c0 -166 125 -294 285 -294c159 0 284 128 284 294c0 165 -125 293 -284 293c-160 0 -285 -128 -285 -293zM43 355c0 203 164 369 367 369s368 -166 368 -369c0 -204 -165 -370 -368 -370s-367 166 -367 370zM535 529l-18 -68c-19 8 -41 12 -64 12
c-57 0 -106 -29 -119 -92c18 22 52 37 87 37c75 0 130 -43 130 -122c0 -78 -64 -131 -152 -131c-81 0 -156 57 -156 168c0 132 89 214 204 214c32 0 64 -7 88 -18zM339 294c0 -35 30 -55 61 -55s60 20 60 55s-29 56 -60 56s-61 -21 -61 -56z" />
    <glyph glyph-name="uni2786" unicode="&#x2786;" horiz-adv-x="821" 
d="M125 355c0 -166 125 -294 285 -294c159 0 284 128 284 294c0 165 -125 293 -284 293c-160 0 -285 -128 -285 -293zM43 355c0 203 164 369 367 369s368 -166 368 -369c0 -204 -165 -370 -368 -370s-367 166 -367 370zM561 531v-77c-35 -26 -131 -109 -148 -289h-96
c16 189 132 290 132 290h-191v76h303z" />
    <glyph glyph-name="uni2787" unicode="&#x2787;" horiz-adv-x="821" 
d="M125 355c0 -166 125 -294 285 -294c159 0 284 128 284 294c0 165 -125 293 -284 293c-160 0 -285 -128 -285 -293zM43 355c0 203 164 369 367 369s368 -166 368 -369c0 -204 -165 -370 -368 -370s-367 166 -367 370zM410 392c32 0 50 19 50 43c0 21 -17 40 -50 40
s-51 -19 -51 -40c0 -24 19 -43 51 -43zM410 238c41 0 60 20 60 46c0 24 -20 44 -60 44s-61 -20 -61 -44c0 -26 20 -46 61 -46zM410 165c-96 0 -151 46 -151 109c0 39 28 73 71 87c-39 14 -60 47 -60 81c0 61 55 105 140 105s139 -44 139 -105c0 -34 -21 -67 -59 -81
c42 -14 71 -48 71 -85c0 -64 -54 -111 -151 -111z" />
    <glyph glyph-name="uni2788" unicode="&#x2788;" horiz-adv-x="821" 
d="M125 355c0 -166 125 -294 285 -294c159 0 284 128 284 294c0 165 -125 293 -284 293c-160 0 -285 -128 -285 -293zM43 355c0 203 164 369 367 369s368 -166 368 -369c0 -204 -165 -370 -368 -370s-367 166 -367 370zM280 181l17 70c19 -7 40 -13 62 -13
c59 0 111 26 121 92c-18 -22 -53 -37 -88 -37c-71 0 -131 44 -131 122c0 77 63 131 152 131c80 0 155 -55 155 -163c0 -141 -83 -219 -199 -219c-32 0 -65 6 -89 17zM471 416c0 35 -28 56 -61 56c-32 0 -60 -21 -60 -56s28 -56 60 -56c33 0 61 21 61 56z" />
    <glyph glyph-name="uniE020" unicode="&#xe020;" horiz-adv-x="776" 
d="M222 -16l-207 241h157v484h572v-100h-471v-384h156z" />
    <glyph glyph-name="uni21B5" unicode="&#xe021;" horiz-adv-x="1097" 
d="M239 122l-199 233h143c1 205 166 369 370 369c64 0 125 -16 177 -44l-45 -90c-40 22 -84 34 -131 34c-150 0 -270 -120 -270 -269h153zM921 353c-1 -204 -166 -368 -370 -368c-64 0 -124 16 -177 44l45 90c40 -22 84 -34 132 -34c149 0 268 120 268 269h-150l199 232
l199 -233h-146z" />
    <glyph glyph-name="uniE022" unicode="&#xe022;" horiz-adv-x="953" 
d="M531 354l198 232l199 -232h-142c0 -204 -165 -369 -370 -369c-204 0 -369 165 -369 369c0 205 165 370 369 370c61 0 118 -14 169 -40l-42 -91c-38 20 -81 31 -126 31c-150 0 -269 -120 -269 -270s119 -271 269 -271c149 0 268 121 268 271h-154z" />
    <glyph glyph-name="uniFB00" unicode="&#xfb00;" horiz-adv-x="670" 
d="M611 625c-30 0 -72 -14 -72 -74v-64h113v-101h-113v-386h-117v386h-203v-386h-117v386h-85v101h85v67c0 109 70 175 170 175c29 0 53 -6 61 -10v-99c-7 2 -20 5 -42 5c-30 0 -72 -14 -72 -74v-64h203v67c0 109 70 175 170 175c29 0 53 -6 61 -10v-99c-7 2 -20 5 -42 5z
" />
    <glyph glyph-name="fi" unicode="&#xfb01;" horiz-adv-x="619" 
d="M272 729c29 0 53 -6 61 -10v-99c-7 2 -20 5 -42 5c-30 0 -72 -14 -72 -74v-64h324v-487h-114v386h-210v-386h-117v386h-85v101h85v67c0 109 70 175 170 175zM411 659c0 42 33 76 75 76s76 -34 76 -76c0 -41 -34 -75 -76 -75s-75 34 -75 75z" />
    <glyph glyph-name="fl" unicode="&#xfb02;" horiz-adv-x="617" 
d="M291 625c-30 0 -72 -14 -72 -74v-64h208v237h115v-724h-115v386h-208v-386h-117v386h-85v101h85v67c0 109 70 175 170 175c29 0 53 -6 61 -10v-99c-7 2 -20 5 -42 5z" />
    <glyph glyph-name="uniFB03" unicode="&#xfb03;" horiz-adv-x="940" 
d="M732 659c0 42 34 76 75 76c42 0 76 -34 76 -76c0 -41 -34 -75 -76 -75c-41 0 -75 34 -75 75zM611 625c-30 0 -72 -14 -72 -74v-64h326v-487h-115v386h-211v-386h-117v386h-203v-386h-117v386h-85v101h85v67c0 109 70 175 170 175c29 0 53 -6 61 -10v-99c-7 2 -20 5 -42 5
c-31 0 -72 -14 -72 -74v-64h203v67c0 109 70 175 170 175c29 0 53 -6 61 -10v-99c-7 2 -20 5 -42 5z" />
    <glyph glyph-name="uniFB04" unicode="&#xfb04;" horiz-adv-x="940" 
d="M611 625c-30 0 -72 -14 -72 -74v-64h211v237h115v-724h-115v386h-211v-386h-117v386h-203v-386h-117v386h-85v101h85v67c0 109 70 175 170 175c29 0 53 -6 61 -10v-99c-7 2 -20 5 -42 5c-30 0 -72 -14 -72 -74v-64h203v67c0 109 70 175 170 175c29 0 53 -6 61 -10v-99
c-7 2 -20 5 -42 5z" />
    <glyph glyph-name="uniFEFF" unicode="&#xfeff;" horiz-adv-x="0" 
 />
    <glyph glyph-name="zero.numr" horiz-adv-x="431" 
d="M147 465c0 -52 9 -114 68 -114c60 0 68 62 68 114s-8 115 -68 115c-59 0 -68 -62 -68 -115zM55 465c0 91 37 191 160 191c125 0 161 -102 161 -191c0 -87 -35 -190 -161 -190c-125 0 -160 101 -160 190z" />
    <glyph glyph-name="one.numr" horiz-adv-x="308" 
d="M223 282h-91v233h-89v60c57 1 91 37 98 73h82v-366z" />
    <glyph glyph-name="two.numr" horiz-adv-x="392" 
d="M146 506l-84 -1c-2 10 -3 21 -3 30c0 65 49 121 138 121c87 0 137 -55 137 -119c0 -47 -28 -83 -75 -111l-71 -43c-10 -7 -18 -16 -20 -25h169v-76h-281v12c0 63 24 114 87 152l60 36c27 16 41 35 41 56c0 22 -16 44 -49 44c-32 0 -52 -21 -52 -52c0 -5 1 -16 3 -24z" />
    <glyph glyph-name="three.numr" horiz-adv-x="412" 
d="M55 383l80 24c5 -33 32 -58 69 -58s61 22 61 49c0 37 -30 51 -61 51c-12 0 -21 -2 -31 -6l-32 61l91 69h-164v75h279v-72l-94 -69c59 -6 103 -45 103 -110c0 -67 -58 -123 -151 -123c-89 0 -140 54 -150 109z" />
    <glyph glyph-name="four.numr" horiz-adv-x="443" 
d="M55 353v88l172 207h99v-222h62v-73h-62v-71h-90v71h-181zM236 426v125l-103 -125h103z" />
    <glyph glyph-name="five.numr" horiz-adv-x="388" 
d="M55 378l79 25c6 -32 33 -52 66 -52c35 0 59 19 59 53c0 38 -25 56 -60 56c-24 0 -44 -10 -58 -24l-74 24l47 188h214v-75h-158l-19 -73c17 17 45 25 72 25c76 0 126 -45 126 -119c0 -72 -53 -131 -149 -131c-77 0 -134 48 -145 103z" />
    <glyph glyph-name="six.numr" horiz-adv-x="418" 
d="M347 638l-18 -68c-19 8 -41 12 -64 12c-57 0 -106 -29 -119 -92c18 22 52 37 87 37c75 0 130 -43 130 -122c0 -78 -64 -131 -152 -131c-81 0 -156 57 -156 168c0 132 89 214 204 214c32 0 64 -7 88 -18zM151 403c0 -35 30 -55 61 -55s60 20 60 55s-29 56 -60 56
s-61 -21 -61 -56z" />
    <glyph glyph-name="seven.numr" horiz-adv-x="413" 
d="M358 648v-77c-35 -26 -131 -109 -148 -289h-96c16 189 132 290 132 290h-191v76h303z" />
    <glyph glyph-name="eight.numr" horiz-adv-x="415" 
d="M208 501c32 0 50 19 50 43c0 21 -17 40 -50 40s-51 -19 -51 -40c0 -24 19 -43 51 -43zM208 347c41 0 60 20 60 46c0 24 -20 44 -60 44s-61 -20 -61 -44c0 -26 20 -46 61 -46zM208 274c-96 0 -151 46 -151 109c0 39 28 73 71 87c-39 14 -60 47 -60 81c0 61 55 105 140 105
s139 -44 139 -105c0 -34 -21 -67 -59 -81c42 -14 71 -48 71 -85c0 -64 -54 -111 -151 -111z" />
    <glyph glyph-name="nine.numr" horiz-adv-x="417" 
d="M74 290l17 70c19 -7 40 -13 62 -13c59 0 111 26 121 92c-18 -22 -53 -37 -88 -37c-71 0 -131 44 -131 122c0 77 63 131 152 131c80 0 155 -55 155 -163c0 -141 -83 -219 -199 -219c-32 0 -65 6 -89 17zM265 525c0 35 -28 56 -61 56c-32 0 -60 -21 -60 -56s28 -56 60 -56
c33 0 61 21 61 56z" />
    <glyph glyph-name="zero.dnom" horiz-adv-x="431" 
d="M147 183c0 -52 9 -114 68 -114c60 0 68 62 68 114s-8 115 -68 115c-59 0 -68 -62 -68 -115zM55 183c0 91 37 191 160 191c125 0 161 -102 161 -191c0 -87 -35 -190 -161 -190c-125 0 -160 101 -160 190z" />
    <glyph glyph-name="one.dnom" horiz-adv-x="305" 
d="M223 0h-91v233h-89v60c57 1 91 37 98 73h82v-366z" />
    <glyph glyph-name="two.dnom" horiz-adv-x="392" 
d="M146 224l-84 -1c-2 10 -3 21 -3 30c0 65 49 121 138 121c87 0 137 -55 137 -119c0 -47 -28 -83 -75 -111l-71 -43c-10 -7 -18 -16 -20 -25h169v-76h-281v12c0 63 24 114 87 152l60 36c27 16 41 35 41 56c0 22 -16 44 -49 44c-32 0 -52 -21 -52 -52c0 -5 1 -16 3 -24z" />
    <glyph glyph-name="three.dnom" horiz-adv-x="412" 
d="M55 102l80 24c5 -33 32 -58 69 -58s61 22 61 49c0 37 -30 51 -61 51c-12 0 -21 -2 -31 -6l-32 61l91 69h-164v75h279v-72l-94 -69c59 -6 103 -45 103 -110c0 -67 -58 -123 -151 -123c-89 0 -140 54 -150 109z" />
    <glyph glyph-name="four.dnom" horiz-adv-x="443" 
d="M55 71v88l172 207h99v-222h62v-73h-62v-71h-90v71h-181zM236 144v125l-103 -125h103z" />
    <glyph glyph-name="five.dnom" horiz-adv-x="404" 
d="M55 96l79 25c6 -32 33 -52 66 -52c35 0 59 19 59 53c0 38 -25 56 -60 56c-24 0 -44 -10 -58 -24l-74 24l47 188h214v-75h-158l-19 -73c17 17 45 25 72 25c76 0 126 -45 126 -119c0 -72 -53 -131 -149 -131c-77 0 -134 48 -145 103z" />
    <glyph glyph-name="six.dnom" horiz-adv-x="418" 
d="M347 357l-18 -68c-19 8 -41 12 -64 12c-57 0 -106 -29 -119 -92c18 22 52 37 87 37c75 0 130 -43 130 -122c0 -78 -64 -131 -152 -131c-81 0 -156 57 -156 168c0 132 89 214 204 214c32 0 64 -7 88 -18zM151 122c0 -35 30 -55 61 -55s60 20 60 55s-29 56 -60 56
s-61 -21 -61 -56z" />
    <glyph glyph-name="seven.dnom" horiz-adv-x="413" 
d="M358 366v-77c-35 -26 -131 -109 -148 -289h-96c16 189 132 290 132 290h-191v76h303z" />
    <glyph glyph-name="eight.dnom" horiz-adv-x="415" 
d="M208 219c32 0 50 19 50 43c0 21 -17 40 -50 40s-51 -19 -51 -40c0 -24 19 -43 51 -43zM208 65c41 0 60 20 60 46c0 24 -20 44 -60 44s-61 -20 -61 -44c0 -26 20 -46 61 -46zM208 -8c-96 0 -151 46 -151 109c0 39 28 73 71 87c-39 14 -60 47 -60 81c0 61 55 105 140 105
s139 -44 139 -105c0 -34 -21 -67 -59 -81c42 -14 71 -48 71 -85c0 -64 -54 -111 -151 -111z" />
    <glyph glyph-name="nine.dnom" horiz-adv-x="417" 
d="M74 9l17 70c19 -7 40 -13 62 -13c59 0 111 26 121 92c-18 -22 -53 -37 -88 -37c-71 0 -131 44 -131 122c0 77 63 131 152 131c80 0 155 -55 155 -163c0 -141 -83 -219 -199 -219c-32 0 -65 6 -89 17zM265 244c0 35 -28 56 -61 56c-32 0 -60 -21 -60 -56s28 -56 60 -56
c33 0 61 21 61 56z" />
    <glyph glyph-name="space.frac" horiz-adv-x="49" 
 />
    <glyph glyph-name="a.ordn" horiz-adv-x="425" 
d="M59 399c0 61 46 95 103 103l86 13c19 3 26 13 26 24c0 26 -20 47 -61 47c-40 0 -63 -26 -66 -57l-81 17c6 56 57 113 147 113c108 0 148 -61 148 -130v-169c0 -28 3 -51 4 -55h-82c-1 3 -4 20 -4 42c-17 -27 -50 -52 -102 -52c-73 0 -118 49 -118 104zM196 363
c40 0 78 20 78 82v15l-82 -12c-24 -4 -43 -17 -43 -44c0 -21 15 -41 47 -41z" />
    <glyph glyph-name="b.ordn" horiz-adv-x="499" 
d="M173 305h-88v507h89v-203c15 26 53 48 105 48c101 0 158 -77 158 -179c0 -104 -63 -181 -161 -181c-49 0 -85 21 -103 51v-43zM347 478c0 64 -38 99 -87 99c-48 0 -87 -35 -87 -99c0 -65 39 -101 87 -101c49 0 87 36 87 101z" />
    <glyph glyph-name="c.ordn" horiz-adv-x="461" 
d="M241 576c-48 0 -89 -35 -89 -100c0 -63 41 -99 90 -99s73 33 81 59l80 -27c-16 -56 -70 -114 -161 -114c-101 0 -180 76 -180 181c0 107 78 183 178 183c93 0 145 -58 160 -115l-81 -28c-7 29 -30 60 -78 60z" />
    <glyph glyph-name="d.ordn" horiz-adv-x="501" 
d="M413 812v-445c0 -30 3 -54 4 -62h-87c-2 7 -3 24 -3 40c-17 -27 -51 -48 -98 -48c-98 0 -167 77 -167 181c0 100 68 179 165 179c59 0 88 -25 98 -44v199h88zM153 477c0 -62 36 -101 87 -101c49 0 86 40 86 102c0 63 -37 99 -86 99s-87 -37 -87 -100z" />
    <glyph glyph-name="e.ordn" horiz-adv-x="457" 
d="M150 516h158c-1 35 -25 70 -79 70c-49 0 -76 -37 -79 -70zM317 426l76 -22c-19 -61 -73 -109 -157 -109c-94 0 -177 67 -177 184c0 109 81 180 169 180c106 0 169 -68 169 -178c0 -14 -2 -27 -2 -28h-247c2 -47 41 -82 89 -82c45 0 69 24 80 55z" />
    <glyph glyph-name="f.ordn" horiz-adv-x="346" 
d="M286 572h-78v-267h-90v267h-58v77h58v41c0 78 49 127 123 127c21 0 39 -4 46 -7v-76c-4 1 -13 4 -30 4c-21 0 -49 -10 -49 -49v-40h78v-77z" />
    <glyph glyph-name="g.ordn" horiz-adv-x="466" 
d="M62 286l81 22c7 -39 38 -67 83 -67c60 0 92 30 92 97v28c-14 -24 -47 -46 -97 -46c-91 0 -158 71 -158 167c0 92 64 168 158 168c55 0 87 -23 100 -48v42h86v-308c0 -94 -50 -179 -179 -179c-93 0 -156 58 -166 124zM237 397c49 0 83 35 83 90s-36 90 -83 90
c-48 0 -84 -35 -84 -90s34 -90 84 -90z" />
    <glyph glyph-name="h.ordn" horiz-adv-x="481" 
d="M176 507v-202h-91v507h91v-193c22 28 60 39 93 39c87 0 128 -61 128 -137v-216h-90v201c0 40 -19 71 -66 71c-40 0 -64 -31 -65 -70z" />
    <glyph glyph-name="i.ordn" horiz-adv-x="282" 
d="M186 305h-90v344h90v-344zM85 763c0 31 25 56 56 56s56 -25 56 -56c0 -30 -25 -56 -56 -56s-56 26 -56 56z" />
    <glyph glyph-name="j.ordn" horiz-adv-x="314" 
d="M137 282v367h91v-375c0 -66 -41 -112 -107 -112c-28 0 -46 5 -50 7v75c4 -1 14 -3 27 -3c29 0 39 15 39 41zM126 763c0 32 25 57 56 57s56 -25 56 -57c0 -30 -25 -55 -56 -55s-56 25 -56 55z" />
    <glyph glyph-name="k.ordn" horiz-adv-x="448" 
d="M416 649l-139 -145l142 -199h-111l-94 134l-39 -42v-92h-90v507h90v-294l122 131h119z" />
    <glyph glyph-name="l.ordn" horiz-adv-x="260" 
d="M176 305h-91v507h91v-507z" />
    <glyph glyph-name="m.ordn" horiz-adv-x="692" 
d="M175 305h-90v344h86v-43c19 34 63 52 101 52c46 0 84 -20 102 -58c27 43 65 58 110 58c63 0 124 -39 124 -130v-223h-88v206c0 38 -19 66 -62 66c-41 0 -65 -32 -65 -70v-202h-90v206c0 37 -19 66 -62 66c-42 0 -66 -31 -66 -70v-202z" />
    <glyph glyph-name="n.ordn" horiz-adv-x="481" 
d="M176 502v-197h-91v344h88v-44c21 37 62 53 100 53c84 0 124 -61 124 -137v-216h-90v201c0 40 -19 71 -66 71c-42 0 -65 -33 -65 -75z" />
    <glyph glyph-name="o.ordn" horiz-adv-x="483" 
d="M242 376c47 0 89 34 89 101s-42 100 -89 100s-89 -33 -89 -100c0 -66 42 -101 89 -101zM242 659c103 0 180 -76 180 -182s-77 -182 -180 -182s-180 76 -180 182s77 182 180 182z" />
    <glyph glyph-name="p.ordn" horiz-adv-x="499" 
d="M175 172h-90v477h87v-44c16 28 55 51 107 51c100 0 158 -77 158 -179c0 -103 -64 -180 -161 -180c-48 0 -84 19 -101 43v-168zM349 477c0 62 -38 99 -88 99c-49 0 -87 -37 -87 -99s38 -100 87 -100c50 0 88 37 88 100z" />
    <glyph glyph-name="q.ordn" horiz-adv-x="490" 
d="M415 172h-89v169c-16 -27 -51 -44 -97 -44c-98 0 -167 77 -167 181c0 100 65 179 164 179c60 0 92 -29 102 -50v42h87v-477zM153 477c0 -62 38 -101 87 -101s87 39 87 101c0 63 -38 100 -87 100s-87 -37 -87 -100z" />
    <glyph glyph-name="r.ordn" horiz-adv-x="297" 
d="M283 650v-91c-9 2 -18 3 -26 3c-45 0 -91 -20 -91 -98v-159h-91v344h88v-52c21 45 68 55 98 55c8 0 15 -1 22 -2z" />
    <glyph glyph-name="s.ordn" horiz-adv-x="400" 
d="M63 399l78 19c2 -28 23 -54 64 -54c32 0 47 17 47 35c0 17 -11 30 -38 36l-47 10c-65 14 -95 54 -95 102c0 61 55 112 127 112c98 0 130 -62 135 -99l-76 -18c-3 21 -17 49 -58 49c-26 0 -45 -17 -45 -37c0 -17 13 -28 32 -32l45 -9c64 -12 106 -52 106 -107
c0 -54 -43 -111 -132 -111c-102 0 -139 66 -143 104z" />
    <glyph glyph-name="t.ordn" horiz-adv-x="326" 
d="M198 752v-103h70v-80h-70v-149c0 -29 14 -40 42 -40c11 0 23 2 28 3v-75c-5 -2 -24 -8 -52 -8c-66 0 -107 39 -107 105v164h-63v80h18c36 0 53 23 53 54v49h81z" />
    <glyph glyph-name="u.ordn" horiz-adv-x="452" 
d="M291 305c-2 7 -3 23 -3 36c-20 -31 -60 -45 -96 -45c-83 0 -130 61 -130 136v217h90v-200c0 -39 19 -71 65 -71c42 0 66 28 66 70v201h90v-282c0 -32 2 -52 3 -62h-85z" />
    <glyph glyph-name="v.ordn" horiz-adv-x="413" 
d="M388 649l-134 -344h-90l-140 344h99l86 -235l84 235h95z" />
    <glyph glyph-name="w.ordn" horiz-adv-x="617" 
d="M263 649h94l77 -226l64 226h90l-108 -344h-90l-82 238l-79 -238h-93l-110 344h96l65 -226z" />
    <glyph glyph-name="x.ordn" horiz-adv-x="419" 
d="M33 305l123 173l-122 171h107c10 -17 60 -88 70 -105l69 105h103l-120 -169c31 -44 92 -131 124 -175h-106l-74 108c-11 -17 -62 -91 -72 -108h-102z" />
    <glyph glyph-name="y.ordn" horiz-adv-x="426" 
d="M186 169h-96l81 179l-146 301h101l93 -206l87 206h95z" />
    <glyph glyph-name="z.ordn" horiz-adv-x="407" 
d="M345 305h-283v79l166 186h-162v79h276v-76l-170 -190h173v-78z" />
    <glyph glyph-name="space.tf" 
 />
    <glyph glyph-name="numbersign.tf" 
d="M504 648l-35 -161h92v-90h-111l-31 -142h93v-91h-112l-35 -164h-98l35 164h-110l-35 -164h-98l35 164h-85v91h104l31 142h-86v90h105l35 161h98l-35 -161h110l35 161h98zM242 397l-31 -142h110l31 142h-110z" />
    <glyph glyph-name="dollar.tf" 
d="M341 -109h-90v103c-136 17 -202 114 -211 198l110 31c5 -56 35 -111 101 -127v180l-18 4c-104 24 -168 85 -168 181c0 97 78 177 186 192v104h90v-105c116 -19 165 -99 178 -164l-106 -33c-5 29 -23 74 -72 93v-176l9 -1c116 -26 176 -99 176 -187s-65 -172 -185 -189
v-104zM179 468c0 -36 23 -67 72 -77v161c-47 -12 -72 -47 -72 -84zM412 178c0 36 -22 65 -71 79v-161c49 10 71 45 71 82z" />
    <glyph glyph-name="percent.tf" 
d="M526 538v-95l-482 -327v93zM102 519c0 -35 25 -59 57 -59c33 0 57 24 57 59c0 34 -24 58 -57 58c-32 0 -57 -24 -57 -58zM20 519c0 76 64 136 139 136s139 -60 139 -136c0 -78 -64 -137 -139 -137c-76 0 -139 60 -139 137zM353 129c0 -35 25 -59 57 -59c33 0 57 25 57 59
c0 35 -24 58 -57 58c-32 0 -57 -23 -57 -58zM271 129c0 76 64 137 139 137s139 -61 139 -137c0 -77 -64 -137 -139 -137c-76 0 -139 60 -139 137z" />
    <glyph glyph-name="plus.tf" 
d="M48 339h188v195h99v-195h188v-95h-188v-197h-99v197h-188v95z" />
    <glyph glyph-name="comma.tf" 
d="M187 83c0 47 40 86 94 86c60 0 103 -48 103 -120c0 -159 -108 -226 -185 -236v67c52 11 100 63 101 122c-5 -2 -12 -5 -27 -5c-50 0 -86 34 -86 86z" />
    <glyph glyph-name="period.tf" 
d="M193 85c0 51 41 93 92 93s93 -42 93 -93s-42 -92 -93 -92s-92 41 -92 92z" />
    <glyph glyph-name="zero.tf" 
d="M152 324c0 -99 8 -234 133 -234c124 0 133 135 133 234c0 100 -9 233 -133 233c-125 0 -133 -133 -133 -233zM32 324c0 86 10 172 52 236c42 63 112 103 201 103s159 -39 201 -103s52 -150 52 -236s-10 -173 -52 -237c-42 -63 -112 -102 -201 -102s-159 39 -201 102
c-42 64 -52 151 -52 237z" />
    <glyph glyph-name="one.tf" 
d="M94 104h163v340h-153v82c92 2 153 54 167 122h104v-544h153v-104h-434v104z" />
    <glyph glyph-name="two.tf" 
d="M175 405l-116 8c-1 9 -3 24 -3 37c0 112 84 213 231 213c143 0 228 -93 228 -204c0 -84 -47 -153 -125 -201l-126 -78c-31 -19 -57 -42 -66 -74h321v-106h-469c2 111 41 198 154 268l107 67c58 36 83 75 83 122c0 53 -36 101 -109 101c-76 0 -113 -53 -113 -120
c0 -10 2 -22 3 -33z" />
    <glyph glyph-name="three.tf" 
d="M221 294l-55 89l179 160h-295v105h450v-100l-176 -154c97 -2 194 -72 194 -197c0 -111 -89 -212 -243 -212c-150 0 -239 97 -247 205l117 24c3 -75 57 -126 129 -126c79 0 123 51 123 110c0 75 -60 107 -115 107c-31 0 -51 -6 -61 -11z" />
    <glyph glyph-name="four.tf" 
d="M34 142v130l274 376h154v-400h97v-106h-97v-142h-118v142h-310zM344 248v279l-202 -279h202z" />
    <glyph glyph-name="five.tf" 
d="M44 179l113 29c5 -69 56 -121 131 -121c68 0 123 46 123 118c0 80 -59 120 -125 120c-46 0 -85 -19 -108 -45l-113 41l80 327h355v-105h-274l-40 -164c28 29 78 45 124 45c129 0 222 -80 222 -216c0 -122 -94 -224 -244 -224c-140 0 -236 93 -244 195z" />
    <glyph glyph-name="six.tf" 
d="M524 631l-34 -98c-27 13 -68 25 -113 25c-121 0 -208 -81 -219 -206c25 40 81 77 162 77c128 0 220 -85 220 -219c0 -135 -111 -225 -245 -225c-135 0 -258 95 -258 298c0 238 147 380 349 380c60 0 110 -14 138 -32zM170 208c0 -74 61 -121 125 -121
c67 0 124 46 124 121c0 76 -58 121 -124 121c-67 0 -125 -45 -125 -121z" />
    <glyph glyph-name="seven.tf" 
d="M536 648v-105c-55 -45 -247 -209 -277 -543h-124c28 362 264 543 264 543h-369v105h506z" />
    <glyph glyph-name="eight.tf" 
d="M285 378c65 1 107 41 107 95c0 49 -41 92 -107 92s-106 -43 -106 -92c0 -54 42 -94 106 -95zM285 86c79 0 122 46 122 99s-43 100 -122 100c-78 0 -121 -47 -121 -100s43 -99 121 -99zM285 -15c-148 0 -240 80 -240 188c0 74 51 135 120 159c-62 23 -105 84 -105 148
c0 108 95 183 225 183s226 -75 226 -183c0 -63 -43 -125 -105 -148c68 -24 120 -85 120 -159c0 -108 -92 -188 -241 -188z" />
    <glyph glyph-name="nine.tf" 
d="M44 22l33 98c25 -16 73 -30 116 -30c136 0 209 82 215 204c-24 -42 -84 -75 -157 -75c-116 0 -223 80 -223 218c0 134 108 226 243 226c133 0 255 -97 255 -303c0 -233 -112 -375 -332 -375c-53 0 -117 15 -150 37zM392 441c0 72 -59 119 -123 119s-123 -46 -123 -119
c0 -76 57 -120 123 -120c64 0 123 46 123 120z" />
    <glyph glyph-name="colon.tf" 
d="M196 412c0 49 39 89 87 89c49 0 89 -40 89 -89c0 -48 -40 -88 -89 -88c-48 0 -87 40 -87 88zM196 74c0 49 39 89 87 89c49 0 89 -40 89 -89c0 -48 -40 -88 -89 -88c-48 0 -87 40 -87 88z" />
    <glyph glyph-name="semicolon.tf" 
d="M195 79c0 44 38 79 87 79c56 0 96 -44 96 -111c0 -147 -100 -209 -171 -218v62c48 10 92 58 93 113c-4 -2 -11 -5 -25 -5c-46 0 -80 31 -80 80zM198 412c0 49 39 89 87 89c49 0 89 -40 89 -89c0 -48 -40 -88 -89 -88c-48 0 -87 40 -87 88z" />
    <glyph glyph-name="less.tf" 
d="M73 244v94l422 212v-111l-302 -147l302 -148v-111z" />
    <glyph glyph-name="equal.tf" 
d="M523 343h-475v94h475v-94zM523 146h-475v95h475v-95z" />
    <glyph glyph-name="greater.tf" 
d="M497 338v-94l-422 -211v110l304 148l-304 147v112z" />
    <glyph glyph-name="cent.tf" 
d="M342 0h-91v90c-110 22 -189 116 -189 235c0 121 80 212 189 234v90h91v-88c99 -15 155 -82 172 -145l-100 -35c-8 31 -30 65 -72 78v-271c46 13 70 51 78 79l98 -35c-20 -63 -77 -131 -176 -145v-87zM171 325c0 -67 33 -113 80 -132v262c-47 -19 -80 -63 -80 -130z" />
    <glyph glyph-name="sterling.tf" 
d="M61 368h64c-12 30 -22 63 -22 105c0 104 80 190 203 190c155 0 203 -102 205 -183l-111 -18c0 66 -35 101 -92 101c-50 0 -90 -31 -90 -92c0 -37 13 -70 26 -103h182v-95h-152c1 -8 2 -16 2 -24c0 -61 -29 -115 -83 -146h149c59 0 88 43 88 94l108 -12
c0 -107 -67 -185 -173 -185h-309v104c66 25 108 76 108 133c0 12 -1 24 -4 36h-99v95z" />
    <glyph glyph-name="currency.tf" 
d="M73 242c0 42 12 81 33 114l-74 75l72 71l74 -76c32 19 70 30 110 30c38 0 75 -10 106 -28l73 74l71 -71l-70 -72c22 -33 35 -74 35 -117s-13 -83 -34 -116l69 -70l-70 -70l-71 72c-32 -19 -70 -29 -109 -29c-41 0 -79 11 -112 31l-73 -74l-71 70l73 74
c-21 32 -32 71 -32 112zM172 242c0 -68 50 -117 116 -117s115 49 115 117s-49 117 -115 117s-116 -49 -116 -117z" />
    <glyph glyph-name="yen.tf" 
d="M513 144h-167v-144h-116v144h-164v84h164v74h-164v84h105l-158 262h135l141 -251l137 251h131l-154 -262h110v-84h-167v-74h167v-84z" />
    <glyph glyph-name="section.tf" 
d="M488 249c0 -60 -41 -104 -79 -124c52 -37 81 -89 81 -143c0 -114 -99 -187 -207 -187c-128 0 -201 75 -204 185l108 20c0 -67 34 -108 97 -108c52 0 89 30 89 80c0 31 -19 58 -50 74l-102 52c-74 38 -139 82 -139 172c0 60 41 104 80 124c-54 37 -82 87 -82 143
c0 114 100 186 208 186c128 0 201 -79 203 -184l-109 -20c0 68 -35 107 -95 107c-54 0 -91 -33 -91 -80c0 -30 18 -56 51 -73l101 -52c74 -38 140 -83 140 -172zM328 304l-101 53c-22 -15 -38 -38 -38 -66c0 -32 13 -56 52 -76l100 -53c22 15 39 37 39 66
c0 32 -14 55 -52 76z" />
    <glyph glyph-name="logicalnot.tf" 
d="M508 142h-101v195h-377v97h478v-292z" />
    <glyph glyph-name="plusminus.tf" 
d="M58 405h178v129h99v-129h178v-94h-178v-128h-99v128h-178v94zM58 143h455v-96h-455v96z" />
    <glyph glyph-name="multiply.tf" 
d="M452 51l-167 171l-167 -171l-69 69l168 172l-167 171l69 69l166 -171l166 171l69 -69l-167 -171l168 -172z" />
    <glyph glyph-name="divide.tf" 
d="M211 473c0 39 33 71 72 71s72 -32 72 -71s-33 -73 -72 -73s-72 34 -72 73zM47 243v98h475v-98h-475zM211 111c0 39 33 72 72 72s72 -33 72 -72s-33 -72 -72 -72s-72 33 -72 72z" />
    <glyph glyph-name="florin.tf" 
d="M168 24l73 364h-103v99h123l21 101c22 107 100 152 177 152c43 0 59 -5 82 -12v-101c-16 5 -35 8 -57 8c-31 0 -75 -10 -90 -84l-13 -64h122v-99h-142l-81 -401c-21 -107 -100 -152 -177 -152c-44 0 -61 5 -85 12v101c16 -4 36 -7 61 -7c31 0 75 10 89 83z" />
    <glyph glyph-name="uni2007.tf" 
 />
    <glyph glyph-name="uni2008.tf" 
 />
    <glyph glyph-name="perthousand.tf" 
d="M531 622v-95l-486 -362v94zM90 536c0 -31 23 -53 52 -53s50 22 50 53s-21 52 -50 52s-52 -21 -52 -52zM19 536c0 67 56 121 123 121c66 0 122 -54 122 -121c0 -68 -56 -120 -122 -120c-67 0 -123 53 -123 120zM132 110c0 68 56 121 122 121c34 0 65 -15 86 -37
c22 22 53 37 87 37c66 0 123 -53 123 -121s-57 -120 -123 -120c-35 0 -65 14 -87 37c-21 -23 -52 -37 -86 -37c-67 0 -122 53 -122 120zM254 163c-29 0 -51 -22 -51 -53s22 -52 51 -52s50 21 50 52s-21 53 -50 53zM427 163c-29 0 -51 -22 -51 -53s22 -52 51 -52s50 21 50 52
s-21 53 -50 53z" />
    <glyph glyph-name="Euro.tf" 
d="M44 287h70c-1 11 -2 22 -2 37s1 28 2 35h-70v87h87c48 140 178 217 312 217c56 0 84 -7 115 -19l-28 -99c-18 7 -46 14 -87 14c-77 0 -149 -36 -186 -113h244l-26 -87h-241c-1 -6 -2 -17 -2 -35c0 -15 1 -28 2 -37h225l-25 -88h-175c37 -72 108 -107 185 -107
c41 0 68 7 87 13l27 -98c-28 -12 -62 -21 -114 -21c-135 0 -264 74 -312 213h-88v88z" />
    <glyph glyph-name="minus.tf" 
d="M510 244h-451v96h451v-96z" />
    <glyph glyph-name="approxequal.tf" 
d="M481 447l62 -52c-37 -59 -93 -92 -155 -92c-35 0 -68 9 -105 30l-47 26c-19 10 -39 15 -58 15c-32 0 -63 -15 -88 -46l-64 54c38 60 92 93 154 93c34 0 68 -10 105 -30l47 -25c21 -11 42 -18 63 -18c32 0 62 14 86 45zM481 250l62 -53c-37 -59 -93 -92 -155 -92
c-35 0 -69 10 -105 30l-47 26c-20 11 -39 14 -58 15c-32 0 -64 -15 -88 -46l-64 54c38 60 91 93 152 93c36 0 69 -10 107 -30l47 -25c21 -11 42 -18 63 -18c32 0 62 14 86 46z" />
    <glyph glyph-name="notequal.tf" 
d="M522 146h-274l-68 -98h-109l68 98h-92v95h157l71 102h-228v94h292l66 95h109l-66 -95h74v-94h-138l-71 -102h209v-95z" />
    <glyph glyph-name="lessequal.tf" 
d="M74 143h422v-96h-422v96zM74 311v97l422 141v-99l-292 -89l292 -91v-99z" />
    <glyph glyph-name="greaterequal.tf" 
d="M74 143h422v-96h-422v96zM496 408v-97l-422 -140v98l292 90l-292 90v100z" />
    <glyph glyph-name="parenleft.case" horiz-adv-x="307" 
d="M48 353c0 206 87 350 191 455l68 -58c-100 -114 -161 -229 -161 -397s61 -283 161 -397l-68 -58c-104 105 -191 249 -191 455z" />
    <glyph glyph-name="parenright.case" horiz-adv-x="307" 
d="M259 353c0 -206 -87 -350 -191 -455l-68 58c100 114 161 229 161 397s-61 283 -161 397l68 58c104 -105 191 -249 191 -455z" />
    <glyph glyph-name="hyphen.case" horiz-adv-x="372" 
d="M327 291h-282v103h282v-103z" />
    <glyph glyph-name="bracketleft.case" horiz-adv-x="304" 
d="M299 -100h-214v909h214v-90h-116v-729h116v-90z" />
    <glyph glyph-name="bracketright.case" horiz-adv-x="304" 
d="M219 -100h-214v90h116v729h-116v90h214v-909z" />
    <glyph glyph-name="braceleft.case" horiz-adv-x="365" 
d="M45 304v100c57 0 105 26 105 97v118c0 128 69 190 187 190h23v-89h-22c-60 0 -90 -28 -90 -97v-144c0 -65 -38 -110 -102 -125c64 -14 102 -59 102 -124v-144c0 -69 30 -96 90 -96h22v-89h-23c-118 0 -187 62 -187 190v117c0 70 -48 96 -105 96z" />
    <glyph glyph-name="braceright.case" horiz-adv-x="365" 
d="M320 404v-100c-57 0 -105 -26 -105 -96v-117c0 -128 -69 -190 -187 -190h-23v89h22c60 0 90 27 90 96v144c0 65 38 110 102 124c-64 15 -102 60 -102 125v144c0 69 -30 97 -90 97h-22v89h23c118 0 187 -62 187 -190v-118c0 -71 48 -97 105 -97z" />
    <glyph glyph-name="exclamdown.case" horiz-adv-x="314" 
d="M198 498l29 -498h-142l30 498h83zM83 642c0 40 33 73 73 73s74 -33 74 -73c0 -41 -34 -73 -74 -73s-73 32 -73 73z" />
    <glyph glyph-name="guillemotleft.case" horiz-adv-x="500" 
d="M274 150h-111l-135 193l136 194h111l-134 -195zM481 150h-111l-135 193l136 194h111l-134 -195z" />
    <glyph glyph-name="uni00AD.case" horiz-adv-x="372" 
d="M327 302h-282v103h282v-103z" />
    <glyph glyph-name="guillemotright.case" horiz-adv-x="500" 
d="M337 150h-111l133 192l-134 195h111l136 -194zM130 150h-111l133 192l-134 195h111l136 -194z" />
    <glyph glyph-name="questiondown.case" horiz-adv-x="514" 
d="M221 500h99c2 -12 3 -24 3 -38c0 -60 -22 -109 -80 -150l-46 -33c-33 -24 -47 -54 -47 -88c0 -52 35 -100 108 -100c77 0 112 58 112 116c0 15 -2 33 -6 45l114 -12c4 -14 5 -30 5 -46c0 -100 -74 -208 -225 -208c-149 0 -228 99 -228 200c0 80 41 135 99 176l43 30
c32 23 49 58 49 98v10zM197 643c0 40 32 73 73 73c40 0 73 -33 73 -73s-33 -73 -73 -73c-41 0 -73 33 -73 73z" />
    <glyph glyph-name="endash.case" horiz-adv-x="627" 
d="M570 292h-514v101h514v-101z" />
    <glyph glyph-name="emdash.case" horiz-adv-x="1079" 
d="M1012 292h-946v101h946v-101z" />
    <glyph glyph-name="guilsinglleft.case" horiz-adv-x="293" 
d="M274 150h-111l-135 193l136 194h111l-134 -195z" />
    <glyph glyph-name="guilsinglright.case" horiz-adv-x="293" 
d="M130 150h-111l133 192l-134 195h112l135 -194z" />
    <glyph glyph-name="G.ss01" horiz-adv-x="771" 
d="M403 -15c-189 0 -361 140 -361 370c0 229 173 369 360 369c175 0 289 -104 321 -228l-115 -35c-23 85 -89 152 -206 152c-120 0 -238 -81 -238 -258c0 -172 114 -260 239 -260c111 0 191 64 206 153h-267v106h390c2 -13 2 -27 2 -40c-1 -180 -119 -329 -331 -329z" />
    <glyph glyph-name="a.ss02" horiz-adv-x="599" 
d="M153 246c0 -93 51 -159 132 -159c76 0 129 65 129 159s-52 154 -129 154c-78 0 -132 -60 -132 -154zM415 70c-22 -47 -73 -83 -143 -83c-143 0 -235 113 -235 259c0 141 93 255 233 255c86 0 130 -45 143 -78v64h113v-398c0 -40 4 -79 5 -89h-111c-2 11 -5 37 -5 70z" />
    <glyph glyph-name="agrave.ss02" horiz-adv-x="599" 
d="M153 246c0 -93 51 -159 132 -159c76 0 129 65 129 159s-52 154 -129 154c-78 0 -132 -60 -132 -154zM415 70c-22 -47 -73 -83 -143 -83c-143 0 -235 113 -235 259c0 141 93 255 233 255c86 0 130 -45 143 -78v64h113v-398c0 -40 4 -79 5 -89h-111c-2 11 -5 37 -5 70z
M247 548l-132 148h139l88 -148h-95z" />
    <glyph glyph-name="aacute.ss02" horiz-adv-x="599" 
d="M437 696l-131 -148h-95l89 148h137zM153 246c0 -93 51 -159 132 -159c76 0 129 65 129 159s-52 154 -129 154c-78 0 -132 -60 -132 -154zM415 70c-22 -47 -73 -83 -143 -83c-143 0 -235 113 -235 259c0 141 93 255 233 255c86 0 130 -45 143 -78v64h113v-398
c0 -40 4 -79 5 -89h-111c-2 11 -5 37 -5 70z" />
    <glyph glyph-name="acircumflex.ss02" horiz-adv-x="599" 
d="M222 549h-97l107 143h121l108 -143h-99l-70 77zM153 246c0 -93 51 -159 132 -159c76 0 129 65 129 159s-52 154 -129 154c-78 0 -132 -60 -132 -154zM415 70c-22 -47 -73 -83 -143 -83c-143 0 -235 113 -235 259c0 141 93 255 233 255c86 0 130 -45 143 -78v64h113v-398
c0 -40 4 -79 5 -89h-111c-2 11 -5 37 -5 70z" />
    <glyph glyph-name="atilde.ss02" horiz-adv-x="599" 
d="M153 246c0 -93 51 -159 132 -159c76 0 129 65 129 159s-52 154 -129 154c-78 0 -132 -60 -132 -154zM415 70c-22 -47 -73 -83 -143 -83c-143 0 -235 113 -235 259c0 141 93 255 233 255c86 0 130 -45 143 -78v64h113v-398c0 -40 4 -79 5 -89h-111c-2 11 -5 37 -5 70z
M126 556l-1 18c0 78 45 115 103 115c29 0 50 -10 70 -22l10 -6c15 -9 28 -17 43 -17c20 0 31 13 31 44h76v-17c0 -78 -44 -117 -102 -117c-29 0 -51 11 -71 23l-10 6c-15 9 -28 16 -43 16c-20 0 -30 -12 -30 -43h-76z" />
    <glyph glyph-name="adieresis.ss02" horiz-adv-x="599" 
d="M120 625c0 36 28 65 64 65c37 0 66 -29 66 -65c0 -37 -29 -65 -66 -65c-36 0 -64 28 -64 65zM320 625c0 36 28 65 64 65s65 -29 65 -65c0 -37 -29 -65 -65 -65s-64 28 -64 65zM153 246c0 -93 51 -159 132 -159c76 0 129 65 129 159s-52 154 -129 154
c-78 0 -132 -60 -132 -154zM415 70c-22 -47 -73 -83 -143 -83c-143 0 -235 113 -235 259c0 141 93 255 233 255c86 0 130 -45 143 -78v64h113v-398c0 -40 4 -79 5 -89h-111c-2 11 -5 37 -5 70z" />
    <glyph glyph-name="aring.ss02" horiz-adv-x="599" 
d="M153 246c0 -93 51 -159 132 -159c76 0 129 65 129 159s-52 154 -129 154c-78 0 -132 -60 -132 -154zM415 70c-22 -47 -73 -83 -143 -83c-143 0 -235 113 -235 259c0 141 93 255 233 255c86 0 130 -45 143 -78v64h113v-398c0 -40 4 -79 5 -89h-111c-2 11 -5 37 -5 70z
M394 638c0 -63 -53 -110 -114 -110c-60 0 -113 47 -113 110c0 64 53 111 113 111c61 0 114 -47 114 -111zM324 638c0 26 -19 45 -45 45c-24 0 -43 -19 -43 -45c0 -25 19 -44 43 -44c26 0 45 19 45 44z" />
    <glyph glyph-name="r.ss03" horiz-adv-x="367" 
d="M191 487v-487h-116v487h116zM192 412c0 46 35 81 80 81c46 0 81 -35 81 -81c0 -45 -35 -80 -81 -80c-45 0 -80 35 -80 80z" />
    <glyph glyph-name="ampersand.ss04" horiz-adv-x="694" 
d="M386 237v103h283v-103h-79v-6c-2 -134 -96 -246 -266 -246c-161 0 -264 90 -264 212c0 102 72 168 145 189c-61 21 -110 76 -110 152c0 105 91 186 216 186c158 0 221 -96 228 -195l-117 -16c-3 66 -38 109 -110 109c-51 0 -98 -35 -98 -89c0 -65 59 -94 100 -94h12v-103
c-63 0 -144 -33 -144 -128c0 -59 46 -118 144 -118c87 0 142 53 143 141v6h-83z" />
    <glyph glyph-name="one.ss05" horiz-adv-x="477" 
d="M42 104h157v340h-153v82c92 2 153 54 167 122h104v-544h152v-104h-427v104z" />
    <glyph glyph-name="registered.ss06" horiz-adv-x="429" 
d="M24 526c0 105 85 190 190 190s191 -85 191 -190s-86 -190 -191 -190s-190 85 -190 190zM75 526c0 -79 61 -142 139 -142s140 63 140 142s-62 142 -140 142s-139 -63 -139 -142zM240 430l-29 65h-13v-65h-54v196h84c38 0 68 -29 68 -65c0 -24 -14 -45 -35 -56l36 -75h-57z
M198 539h17c15 0 26 8 26 22s-11 21 -26 21h-17v-43z" />
    <glyph glyph-name="caron.alt" horiz-adv-x="208" 
d="M178 709l-68 -189h-80l29 189h119z" />
    <glyph glyph-name="commaaccent" horiz-adv-x="201" 
d="M30 673c0 35 30 59 67 59c39 0 74 -28 74 -80c0 -95 -74 -121 -129 -121v45c42 0 71 20 73 46c-2 -1 -12 -6 -25 -6c-36 0 -60 23 -60 57z" />
    <glyph glyph-name="commaturn" horiz-adv-x="180" 
d="M161 596c0 -34 -28 -58 -67 -58c-36 0 -74 28 -74 80c0 85 74 120 129 120v-44c-42 0 -71 -24 -73 -47c2 2 12 7 25 7c37 0 60 -24 60 -58z" />
    <glyph glyph-name="dieresis.narrow" horiz-adv-x="315" 
d="M19 625c0 34 26 62 61 62c34 0 61 -28 61 -62s-27 -61 -61 -61c-35 0 -61 27 -61 61zM174 625c0 34 27 62 60 62c35 0 62 -28 62 -62s-27 -61 -62 -61c-33 0 -60 27 -60 61z" />
    <glyph glyph-name="dieresis.uc.narrow" horiz-adv-x="334" 
d="M20 821c0 35 26 62 61 62s63 -27 63 -62s-28 -62 -63 -62s-61 27 -61 62zM190 821c0 35 27 62 62 62s62 -27 62 -62s-27 -62 -62 -62s-62 27 -62 62z" />
    <glyph glyph-name="grave.uc" horiz-adv-x="283" 
d="M156 759l-143 124h148l103 -124h-108z" />
    <glyph glyph-name="dieresis.uc" horiz-adv-x="427" 
d="M24 821c0 37 29 67 66 67c38 0 67 -30 67 -67s-29 -66 -67 -66c-37 0 -66 29 -66 66zM271 821c0 37 28 67 65 67c38 0 67 -30 67 -67s-29 -66 -67 -66c-37 0 -65 29 -65 66z" />
    <glyph glyph-name="macron.uc" horiz-adv-x="340" 
d="M320 776h-300v93h300v-93z" />
    <glyph glyph-name="acute.uc" horiz-adv-x="283" 
d="M270 883l-142 -124h-109l102 124h149z" />
    <glyph glyph-name="circumflex.uc" horiz-adv-x="408" 
d="M131 759h-107l116 124h129l119 -124h-110l-75 64z" />
    <glyph glyph-name="caron.uc" horiz-adv-x="408" 
d="M24 883h109l72 -65l75 65h108l-119 -124h-129z" />
    <glyph glyph-name="breve.uc" horiz-adv-x="369" 
d="M185 754c-105 0 -157 67 -161 132h93c2 -25 21 -54 68 -54s66 29 67 54h93c-3 -65 -55 -132 -160 -132z" />
    <glyph glyph-name="dotaccent.uc" horiz-adv-x="186" 
d="M20 826c0 41 33 73 73 73s73 -32 73 -73c0 -39 -33 -71 -73 -71s-73 32 -73 71z" />
    <glyph glyph-name="ring.uc" horiz-adv-x="285" 
d="M265 860c0 -68 -57 -119 -123 -119c-65 0 -122 51 -122 119s57 119 122 119c66 0 123 -51 123 -119zM189 860c0 28 -21 47 -47 47c-27 0 -47 -19 -47 -47s20 -47 47 -47c26 0 47 19 47 47z" />
    <glyph glyph-name="tilde.uc" horiz-adv-x="372" 
d="M353 886v-23c0 -73 -44 -110 -99 -110c-29 0 -53 11 -73 23l-10 7c-16 10 -30 17 -45 17s-30 -11 -30 -33v-10h-75v22c0 74 45 110 100 110c29 0 54 -11 74 -23l10 -6c16 -9 30 -17 43 -17c17 0 31 9 31 33v10h74z" />
    <glyph glyph-name="hungarumlaut.uc" horiz-adv-x="376" 
d="M194 883l-95 -124h-79l56 124h118zM356 883l-107 -124h-80l69 124h118z" />
    <glyph glyph-name="caron.alt.uc" horiz-adv-x="208" 
d="M187 709l-72 -200h-85l31 200h126z" />
    <glyph glyph-name="undercommaaccent" horiz-adv-x="181" 
d="M20 -96c0 33 30 59 67 59s74 -28 74 -81c0 -91 -73 -120 -129 -120v44c42 0 71 23 73 48c-2 -2 -12 -7 -25 -7c-36 0 -60 23 -60 57z" />
    </font>
</defs>
</svg>
